На всех торрентах на трекере установлена скидка на скачивание в размере 100 процентов(а).
 Возможность скачивания торрента НЕ зависит от ограничений при низком ратио, низком аплоаде, требуемом ратио или требуемом аплоаде.


Начать новую тему Ответить на тему
Статистика раздачи
Размер: 5.61 ГБ | Добавлен: 01 май 2014, 20:46 | Скачали: 78
Сидеров: 7  [0 байт/сек]    Личеров: 2  [0 байт/сек]
Пред. тема | След. тема 

Автор
Сообщение

СообщениеДобавлено: 01 май 2014, 20:46 

Вкратце:
Молодая медсестра Кэти, которая недавно рассталась с парнем, устраивается на работу в частную психиатрическую клинику доктора Роже. Здесь её заботам поручают Патрика – загадочного пациента из палаты №15. Несколько лет назад Патрик убил свою мать и её любовника и с тех пор находится в коматозном состоянии. Доктор Роже использует парня в качестве подопытного в своих необычных исследованиях. Со временем Кэти начинает казаться, что Патрик пытается о чём-то ей сообщить...



Название: Патрик
Оригинальное название: Patrick
Год выхода: 2013
Жанр: ужасы, фантастика, триллер
Режиссер: Марк Хартли

В ролях: Чарльз Дэнс, Рэйчел Гриффитс, Шарни Винсон, Пета Сержант, Дамон Гамо, Мартин Крюз, Элиза Тейлор, Симона Бьюкэнэн, Шэйн Нэгл, Крис Фортуна




Выпущено: Австралия
Продолжительность: 01:35:34
Озвучивани: Любительское (двухголосое)[DeadSno & den904]
перевод на русский язык [МЕГАПЫХАРЬ & ОХ! Студия]
работа со звуком [Гуннлауг]


Формат: MKV
Качество: BDRip 720p [PFa]
Видео: 5007 kb/s, 1280x528
Аудио: Russian: DTS, 1510 kb/s (6 ch) / AC3, 384 kb/s (6 ch) / English: DTS, 1510 kb/s (6 ch)
Субтитры: English

Скачать: Сэмпл

Релиз группы:



Общее
Patrick.2013.Blu.Ray.720p.CINEMANIA.mkv
Формат : Matroska
Версия формата : Version 4 / Version 2
Размер файла : 5,61 Гбайт
Продолжительность : 1 ч. 35 м.
Общий поток : 8406 Кбит/сек
Название фильма : Release Group CINEMANIA
Дата кодирования : UTC 2014-05-01 11:55:45
Программа кодирования : mkvmerge v6.9.1 ('Blue Panther') 64bit built on Apr 18 2014 18:23:38
Библиотека кодирования : libebml v1.3.0 + libmatroska v1.4.1

Видео
Идентификатор : 1
Формат : AVC
Формат/Информация : Advanced Video Codec
Профиль формата : High@L4.1
Параметр CABAC формата : Да
Параметр ReFrames формата : 5 кадров
Идентификатор кодека : V_MPEG4/ISO/AVC
Продолжительность : 1 ч. 35 м.
Битрейт : 5007 Кбит/сек
Ширина : 1280 пикселей
Высота : 528 пикселей
Соотношение сторон : 2,40:1
Режим частоты кадров : Постоянный
Частота кадров : 24,000 кадра/сек
Цветовое пространство : YUV
Субдискретизация насыщенности : 4:2:0
Битовая глубина : 8 бит
Тип развёртки : Прогрессивная
Бит/(Пиксели*Кадры) : 0.309
Размер потока : 3,23 Гбайт (58%)
Заголовок : Release Group CINEMANIA
Библиотека кодирования : x264 core 142 r2409 d6b4e63
Настройки программы : cabac=1 / ref=5 / deblock=1:0:0 / analyse=0x3:0x133 / me=umh / subme=8 / psy=1 / psy_rd=1.00:0.00 / mixed_ref=1 / me_range=16 / chroma_me=1 / trellis=1 / 8x8dct=1 / cqm=0 / deadzone=21,11 / fast_pskip=0 / chroma_qp_offset=-2 / threads=12 / lookahead_threads=2 / sliced_threads=0 / nr=0 / decimate=1 / interlaced=0 / bluray_compat=0 / constrained_intra=0 / bframes=3 / b_pyramid=2 / b_adapt=1 / b_bias=0 / direct=1 / weightb=1 / open_gop=0 / weightp=2 / keyint=250 / keyint_min=24 / scenecut=40 / intra_refresh=0 / rc_lookahead=40 / rc=2pass / mbtree=1 / bitrate=5007 / ratetol=1.0 / qcomp=0.60 / qpmin=0 / qpmax=69 / qpstep=4 / cplxblur=20.0 / qblur=0.5 / ip_ratio=1.40 / aq=1:1.00
Язык : English
Default : Да
Forced : Нет

Аудио #1
Идентификатор : 2
Формат : DTS
Формат/Информация : Digital Theater Systems
Режим : 16
Параметр Endianness формата : Big
Идентификатор кодека : A_DTS
Продолжительность : 1 ч. 35 м.
Вид битрейта : Постоянный
Битрейт : 1510 Кбит/сек
Каналы : 6 каналов
Расположение каналов : Front: L C R, Side: L R, LFE
Частота : 48,0 КГц
Битовая глубина : 24 бит
Метод сжатия : С потерями
Размер потока : 1,01 Гбайт (18%)
Заголовок : Влад и Снежинка
Язык : Russian
Default : Да
Forced : Да

Аудио #2
Идентификатор : 3
Формат : AC-3
Формат/Информация : Audio Coding 3
Расширение режима : CM (complete main)
Параметр Endianness формата : Big
Идентификатор кодека : A_AC3
Продолжительность : 1 ч. 35 м.
Вид битрейта : Постоянный
Битрейт : 384 Кбит/сек
Каналы : 6 каналов
Расположение каналов : Front: L C R, Side: L R, LFE
Частота : 48,0 КГц
Битовая глубина : 16 бит
Метод сжатия : С потерями
Размер потока : 263 Мбайт (5%)
Заголовок : Влад и Снежинка
Язык : Russian
Default : Нет
Forced : Нет

Аудио #3
Идентификатор : 4
Формат : DTS
Формат/Информация : Digital Theater Systems
Режим : 16
Параметр Endianness формата : Big
Идентификатор кодека : A_DTS
Продолжительность : 1 ч. 35 м.
Вид битрейта : Постоянный
Битрейт : 1509 Кбит/сек
Каналы : 6 каналов
Расположение каналов : Front: L C R, Side: L R, LFE
Частота : 48,0 КГц
Битовая глубина : 24 бит
Метод сжатия : С потерями
Размер потока : 1,01 Гбайт (18%)
Язык : English
Default : Нет
Forced : Нет

Текст
Идентификатор : 5
Формат : UTF-8
Идентификатор кодека : S_TEXT/UTF8
Идентификатор кодека/Информация : UTF-8 Plain Text
Язык : English
Default : Нет
Forced : Нет
загрузка...
Правила, инструкции, FAQ!!!
Торрент  Добавлен [01 май 2014, 20:46] Скачать торрент
Скачать торрент
[ Размер 28.62 КБ / Просмотров 2 ]

Статус  
 
Размер  5.61 ГБ
Приватный: Нет (DHT включён)
.torrent скачан  78
Как залить торрент? | Как скачать Torrent? | Как смотреть и слушать онлайн?  


     Отправить личное сообщение
   
Страница 1 из 1
Показать сообщения за:  Поле сортировки  
Начать новую тему Ответить на тему

   Похожие торренты   Автор   Ответы   Просмотры   Последнее сообщение 
В этой теме нет новых непрочитанных сообщений. Скачать торрент Проверен (House) Patrick Cash (Patrick Ca$h, Патрик Кэш) - Alarm - 2012, MP3, 320 kbps

в форуме House, Размер: 111.62 МБ, Здоровье: 100%

Гость

0
320|2

69
3

07 фев 2015, 13:23

Гость Перейти к последнему сообщению

В этой теме нет новых непрочитанных сообщений. Скачать торрент Патрик / Patrick (2013) HDRip | L2

в форуме Ужасы, Размер: 1.47 ГБ, Здоровье: 100%

Anonymous

0
15|1

48
1

01 май 2014, 20:41

Anonymous Перейти к последнему сообщению

В этой теме нет новых непрочитанных сообщений. Скачать торрент Красный холм / Red Hill (Патрик Хьюз / Patrick Hughes) [2010, Австралия, триллер, драма, криминал, HDRip-AVC, 720p] VO Zamez + Sub rus + original eng

в форуме 720p | 1080p, Размер: 2.37 ГБ, Здоровье: 100%

Anonymous

0
1|0

34
0

13 фев 2014, 06:32

Anonymous Перейти к последнему сообщению

В этой теме нет новых непрочитанных сообщений. Скачать торрент Другой мир: Восстание ликанов / Underworld: Rise of the Lycans (Патрик Татопулос / Patrick Tatopoulos.) [2009, США, фэнтази, боевик, BDRip] Dub

в форуме Фантастика, Фэнтези, Размер: 749.55 МБ, Здоровье: 100%

Anonymous

0
27|9

69
0

17 май 2014, 20:07

Anonymous Перейти к последнему сообщению

В этой теме нет новых непрочитанных сообщений. Скачать торрент Секс в большом городе 2 / Sex and the City 2 (Майкл Патрик Кинг / Michael Patrick King) [2010, США, Комедия, мелодрама, BDRip] Dub

в форуме Комедии, Размер: 888.18 МБ, Здоровье: 100%

Anonymous

0
28|9

46
0

11 фев 2014, 09:15

Anonymous Перейти к последнему сообщению



Сейчас этот форум просматривают: нет зарегистрированных пользователей и гости: 1


Вы не можете начинать темы
Вы не можете отвечать на сообщения
Вы не можете редактировать свои сообщения
Вы не можете удалять свои сообщения
Вы не можете добавлять вложения

Перейти:  

!ВНИМАНИЕ!
 Ресурс не предоставляет электронные версии произведений, а занимается лишь коллекционированием и каталогизацией ссылок, присылаемых и публикуемых на форуме нашими читателями. Если вы являетесь правообладателем какого-либо представленного материала и не желаете чтобы ссылка на него находилась в нашем каталоге, свяжитесь с нами и мы незамедлительно удалим её. Файлы для обмена на трекере предоставлены пользователями сайта, и администрация не несёт ответственности за их содержание. Просьба не заливать файлы, защищенные авторскими правами, а также файлы нелегального содержания!