На всех торрентах на трекере установлена скидка на скачивание в размере 100 процентов(а).
 Возможность скачивания торрента НЕ зависит от ограничений при низком ратио, низком аплоаде, требуемом ратио или требуемом аплоаде.


Начать новую тему Ответить на тему
Статистика раздачи
Размер: 5.58 ГБ | Добавлен: 01 май 2014, 20:16 | Скачали: 45
Сидеров: 7  [0 байт/сек]    Личеров: 0  [0 байт/сек]
Пред. тема | След. тема 

Автор
Сообщение

СообщениеДобавлено: 01 май 2014, 20:16 

Вкратце:
История покорения космоса – это не только успешные полеты, преодоление гравитации, привыкание к невесомости и многочисленные тренировки, без которых ни один космонавт не выдержит полет. Освоение космоса – это трудоемкий и опасный процесс, в котором не обходится без жертв и потерь, и не метафорических, а вполне ощутимых. Одна из таких потерь произошла в январе 1986 году и стала настоящим шоком: через минуту с небольшим после начала полета космического корабля «Челленджер» он взорвался, унеся жизни семерых американских астронавтов – всего экипажа.

Как это произошло и что за неполадка стала причиной взрыва? Почему корабль перенес успешный запуск, но не смог продолжить полет? Как избежать повторения этой трагедии и что сказать членам семей астронавтов, погибших так неожиданно и трагично? Расследование этого загадочного происшествия ложится на плечи Ричарда Фейнмана, который в поисках истины готов самолично проверить каждую версию до мельчайших деталей.


Год выхода: 2013
Жанр: драма
Режиссер: Джеймс Хоуз

В ролях: Уильям Хёрт, Брюс Гринвуд, Джоэнн Уэлли, Брайан Деннехи, Кевин МакНэлли, Лэнгли Кирквуд, Ив Бест, Шон Майкл, Генри Гудман, Роберт Хоббс





Выпущено: Великобритания, США
Продолжительность: 01:29:09
Озвучивание: Профессиональное (многоголосое) [Amedia]


Формат: MKV
Качество: BDRip 1080p [iNVANDRAREN]
Видео: 8582 kb/s, 1920x1080
Аудио: Russian / English: AC3, 192 kb/s (2 ch)
Субтитры: English

Скачать: Сэмпл

Релиз группы:




Общее
The.Challenger.2013.Blu.Ray.1080p.CINEMANIA.mkv
Формат : Matroska
Версия формата : Version 4 / Version 2
Размер файла : 5,58 Гбайт
Продолжительность : 1 ч. 29 м.
Общий поток : 8966 Кбит/сек
Название фильма : Release Group CINEMANIA
Дата кодирования : UTC 2014-05-01 14:13:16
Программа кодирования : mkvmerge v6.9.1 ('Blue Panther') 64bit built on Apr 18 2014 18:23:38
Библиотека кодирования : libebml v1.3.0 + libmatroska v1.4.1

Видео
Идентификатор : 1
Формат : AVC
Формат/Информация : Advanced Video Codec
Профиль формата : High@L4.1
Параметр CABAC формата : Да
Параметр ReFrames формата : 4 кадра
Идентификатор кодека : V_MPEG4/ISO/AVC
Продолжительность : 1 ч. 29 м.
Битрейт : 8582 Кбит/сек
Ширина : 1920 пикселей
Высота : 1080 пикселей
Соотношение сторон : 16:9
Режим частоты кадров : Постоянный
Частота кадров : 25,000 кадров/сек
Цветовое пространство : YUV
Субдискретизация насыщенности : 4:2:0
Битовая глубина : 8 бит
Тип развёртки : Прогрессивная
Бит/(Пиксели*Кадры) : 0.166
Размер потока : 5,23 Гбайт (94%)
Заголовок : Release Group CINEMANIA
Библиотека кодирования : x264 core 142 r2431kMod ac76440
Настройки программы : cabac=1 / ref=4 / deblock=1:0:0 / analyse=0x3:0x133 / me=umh / subme=7 / psy=1 / fade_compensate=0.00 / psy_rd=1.00:0.00 / mixed_ref=1 / me_range=16 / chroma_me=1 / trellis=1 / 8x8dct=1 / cqm=0 / deadzone=21,11 / fast_pskip=0 / chroma_qp_offset=-2 / threads=6 / lookahead_threads=1 / sliced_threads=0 / nr=0 / decimate=1 / interlaced=0 / bluray_compat=0 / constrained_intra=0 / fgo=0 / bframes=3 / b_pyramid=2 / b_adapt=2 / b_bias=0 / direct=3 / weightb=1 / open_gop=0 / weightp=2 / keyint=250 / keyint_min=25 / scenecut=40 / intra_refresh=0 / rc_lookahead=50 / rc=2pass / mbtree=1 / bitrate=8582 / ratetol=1.0 / qcomp=0.60 / qpmin=0 / qpmax=69 / qpstep=4 / cplxblur=20.0 / qblur=0.5 / ip_ratio=1.40 / aq=1:1.00
Язык : English
Default : Нет
Forced : Нет

Аудио #1
Идентификатор : 2
Формат : AC-3
Формат/Информация : Audio Coding 3
Расширение режима : CM (complete main)
Параметр Endianness формата : Big
Идентификатор кодека : A_AC3
Продолжительность : 1 ч. 29 м.
Вид битрейта : Постоянный
Битрейт : 192 Кбит/сек
Каналы : 2 канала
Расположение каналов : Front: L R
Частота : 48,0 КГц
Битовая глубина : 16 бит
Метод сжатия : С потерями
Размер потока : 122 Мбайт (2%)
Заголовок : Amedia
Язык : Russian
Default : Да
Forced : Да

Аудио #2
Идентификатор : 3
Формат : AC-3
Формат/Информация : Audio Coding 3
Расширение режима : CM (complete main)
Параметр Endianness формата : Big
Идентификатор кодека : A_AC3
Продолжительность : 1 ч. 29 м.
Вид битрейта : Постоянный
Битрейт : 192 Кбит/сек
Каналы : 2 канала
Расположение каналов : Front: L R
Частота : 48,0 КГц
Битовая глубина : 16 бит
Метод сжатия : С потерями
Размер потока : 122 Мбайт (2%)
Язык : English
Default : Нет
Forced : Нет

Текст
Идентификатор : 4
Формат : UTF-8
Идентификатор кодека : S_TEXT/UTF8
Идентификатор кодека/Информация : UTF-8 Plain Text
Язык : English
Default : Нет
Forced : Нет
загрузка...
Правила, инструкции, FAQ!!!
Торрент  Добавлен [01 май 2014, 20:16] Скачать торрент
Скачать торрент
[ Размер 28.49 КБ / Просмотров 8 ]

Статус  
 
Размер  5.58 ГБ
Приватный: Нет (DHT включён)
.torrent скачан  45
Как залить торрент? | Как скачать Torrent? | Как смотреть и слушать онлайн?  


     Отправить личное сообщение
   
Страница 1 из 1
Показать сообщения за:  Поле сортировки  
Начать новую тему Ответить на тему

   Похожие торренты   Автор   Ответы   Просмотры   Последнее сообщение 
В этой теме нет новых непрочитанных сообщений. Скачать торрент Челленджер / The Challenger (2013) BDRip-AVC | P

в форуме Драмы, Мелодрамы, Размер: 1.48 ГБ, Здоровье: 100%

Anonymous

0
6|0

20
32

01 май 2014, 20:22

Anonymous Перейти к последнему сообщению

В этой теме нет новых непрочитанных сообщений. Скачать торрент Челленджер / The Challenger (2013) HDTVRip | P

в форуме Драмы, Мелодрамы, Размер: 1.37 ГБ, Здоровье: 0%

Anonymous

0
0|0

30
0

12 апр 2014, 15:49

Anonymous Перейти к последнему сообщению

В этой теме нет новых непрочитанных сообщений. Скачать торрент Челленджер / The Challenger (2013) HDTV 720p | P

в форуме 720p | 1080p, Размер: 2.21 ГБ, Здоровье: 0%

Anonymous

0
0|0

26
0

12 апр 2014, 15:45

Anonymous Перейти к последнему сообщению

В этой теме нет новых непрочитанных сообщений. Скачать торрент Проверен Challenger - Challenger (2013) [MP3|320 кб/с]<Melodic Metalcore>

в форуме Русский Рок, Размер: 80.44 МБ, Здоровье: ???%

Anonymous

0
0|1

43
0

12 июн 2014, 00:37

Anonymous Перейти к последнему сообщению

В этой теме нет новых непрочитанных сообщений. Скачать торрент Проверен (Psychedelic rock) The Challenger's - The Challenger's -1969 (Reissue 2002) - 2002, FLAC (tracks+.cue), lossless

в форуме Progressive & Art-Rock, Размер: 239.89 МБ, Здоровье: 0%

Anonymous

0
0|0

1
0

30 авг 2016, 17:57

Anonymous Перейти к последнему сообщению



Сейчас этот форум просматривают: нет зарегистрированных пользователей и гости: 2


Вы не можете начинать темы
Вы не можете отвечать на сообщения
Вы не можете редактировать свои сообщения
Вы не можете удалять свои сообщения
Вы не можете добавлять вложения

Перейти:  

!ВНИМАНИЕ!
 Ресурс не предоставляет электронные версии произведений, а занимается лишь коллекционированием и каталогизацией ссылок, присылаемых и публикуемых на форуме нашими читателями. Если вы являетесь правообладателем какого-либо представленного материала и не желаете чтобы ссылка на него находилась в нашем каталоге, свяжитесь с нами и мы незамедлительно удалим её. Файлы для обмена на трекере предоставлены пользователями сайта, и администрация не несёт ответственности за их содержание. Просьба не заливать файлы, защищенные авторскими правами, а также файлы нелегального содержания!