На всех торрентах на трекере установлена скидка на скачивание в размере 100 процентов(а).
 Возможность скачивания торрента НЕ зависит от ограничений при низком ратио, низком аплоаде, требуемом ратио или требуемом аплоаде.


Начать новую тему Ответить на тему
Статистика раздачи
Размер: 7.09 ГБ | Добавлен: 30 апр 2014, 22:25 | Скачали: 0
Сидеров: 0  [0 байт/сек]    Личеров: 0  [0 байт/сек]
Пред. тема | След. тема 

Автор
Сообщение

СообщениеДобавлено: 30 апр 2014, 22:25 

Вкратце:
Познакомившись в сети с прекрасной девушкой, начинающий писатель, желая произвести на свою собеседницу впечатление, решает слегка приукрасить свой профиль в социальной сети. Однако, когда спустя какое-то время они начинают встречаться, парню приходится несладко: признаться в обмане он не рискует, боясь потерять девушку, а соответствовать придуманному им самим идеальному образу оказывается очень сложно.


Название: Дело в тебе
Оригинальное название: A Case of You
Год выхода: 2013
Жанр: комедия, мелодрама
Режиссер: Кэт Койро

В ролях: Джастин Лонг, Эван Рэйчел Вуд, Кейр О’Доннелл, Бизи Филиппс, Сиенна Миллер, Питер Динклэйдж, Брендан Фрейзер, Сэм Рокуэлл, Винс Вон, Линн Коэн





Выпущено: США
Продолжительность: 01:31:20
Озвучивание: Любительское (многоголосое) [Victory Films]


Формат: MKV
Качество: BDRip 1080p [IGUANA]
Видео: 8742 kb/s, 1920x808
Аудио: Russian: AC3, 192 kb/s (2 ch) / English: DTS, 1510 kb/s (6 ch)
Субтитры: Russian [Camilla77], English
Дополнительно: Сохранены оригинальные чаптеры как на Blu-Ray

Скачать: Сэмпл

Релиз группы:



Общее
A.Case.of.You.2013.Blu.Ray.1080p.CINEMANIA.mkv
Формат : Matroska
Версия формата : Version 4 / Version 2
Размер файла : 7,09 Гбайт
Продолжительность : 1 ч. 31 м.
Общий поток : 11,1 Мбит/сек
Название фильма : Release Group CINEMANIA
Дата кодирования : UTC 2014-04-30 14:04:42
Программа кодирования : mkvmerge v6.9.1 ('Blue Panther') 64bit built on Apr 18 2014 18:23:38
Библиотека кодирования : libebml v1.3.0 + libmatroska v1.4.1

Видео
Идентификатор : 1
Формат : AVC
Формат/Информация : Advanced Video Codec
Профиль формата : High@L4.1
Параметр CABAC формата : Да
Параметр ReFrames формата : 5 кадров
Идентификатор кодека : V_MPEG4/ISO/AVC
Продолжительность : 1 ч. 31 м.
Битрейт : 8742 Кбит/сек
Ширина : 1920 пикселей
Высота : 808 пикселей
Соотношение сторон : 2,40:1
Режим частоты кадров : Постоянный
Частота кадров : 23,976 кадра/сек
Цветовое пространство : YUV
Субдискретизация насыщенности : 4:2:0
Битовая глубина : 8 бит
Тип развёртки : Прогрессивная
Бит/(Пиксели*Кадры) : 0.235
Размер потока : 5,45 Гбайт (77%)
Заголовок : Release Group CINEMANIA
Библиотека кодирования : x264 core 138 r2358 9e941d1
Настройки программы : cabac=1 / ref=5 / deblock=1:0:0 / analyse=0x3:0x133 / me=umh / subme=7 / psy=1 / psy_rd=1.00:0.00 / mixed_ref=1 / me_range=16 / chroma_me=1 / trellis=1 / 8x8dct=1 / cqm=0 / deadzone=21,11 / fast_pskip=0 / chroma_qp_offset=-2 / threads=12 / lookahead_threads=2 / sliced_threads=0 / nr=0 / decimate=1 / interlaced=0 / bluray_compat=0 / constrained_intra=0 / bframes=3 / b_pyramid=2 / b_adapt=2 / b_bias=0 / direct=3 / weightb=1 / open_gop=0 / weightp=2 / keyint=240 / keyint_min=23 / scenecut=40 / intra_refresh=0 / rc_lookahead=50 / rc=2pass / mbtree=1 / bitrate=8742 / ratetol=1.0 / qcomp=0.60 / qpmin=0 / qpmax=69 / qpstep=4 / cplxblur=20.0 / qblur=0.5 / ip_ratio=1.40 / aq=1:1.00
Язык : English
Default : Да
Forced : Нет

Аудио #1
Идентификатор : 2
Формат : AC-3
Формат/Информация : Audio Coding 3
Расширение режима : CM (complete main)
Параметр Endianness формата : Big
Идентификатор кодека : A_AC3
Продолжительность : 1 ч. 31 м.
Вид битрейта : Постоянный
Битрейт : 192 Кбит/сек
Каналы : 2 канала
Расположение каналов : Front: L R
Частота : 48,0 КГц
Битовая глубина : 16 бит
Метод сжатия : С потерями
Размер потока : 126 Мбайт (2%)
Заголовок : Victory Films
Язык : Russian
Default : Да
Forced : Да

Аудио #2
Идентификатор : 3
Формат : DTS
Формат/Информация : Digital Theater Systems
Режим : 16
Параметр Endianness формата : Big
Идентификатор кодека : A_DTS
Продолжительность : 1 ч. 31 м.
Вид битрейта : Постоянный
Битрейт : 1509 Кбит/сек
Каналы : 6 каналов
Расположение каналов : Front: L C R, Side: L R, LFE
Частота : 48,0 КГц
Битовая глубина : 24 бит
Метод сжатия : С потерями
Размер потока : 988 Мбайт (14%)
Язык : English
Default : Нет
Forced : Нет

Аудио #3
Идентификатор : 4
Формат : AC-3
Формат/Информация : Audio Coding 3
Расширение режима : CM (complete main)
Параметр Endianness формата : Big
Идентификатор кодека : A_AC3
Продолжительность : 1 ч. 31 м.
Вид битрейта : Постоянный
Битрейт : 640 Кбит/сек
Каналы : 6 каналов
Расположение каналов : Front: L C R, Side: L R, LFE
Частота : 48,0 КГц
Битовая глубина : 16 бит
Метод сжатия : С потерями
Размер потока : 419 Мбайт (6%)
Язык : English
Default : Нет
Forced : Нет

Текст #1
Идентификатор : 5
Формат : UTF-8
Идентификатор кодека : S_TEXT/UTF8
Идентификатор кодека/Информация : UTF-8 Plain Text
Заголовок : Camilla77
Язык : Russian
Default : Нет
Forced : Нет

Текст #2
Идентификатор : 6
Формат : UTF-8
Идентификатор кодека : S_TEXT/UTF8
Идентификатор кодека/Информация : UTF-8 Plain Text
Язык : English
Default : Нет
Forced : Нет

Меню
00:00:00.000 : en:00:00:00.000
00:05:18.109 : en:00:05:18.109
00:14:19.067 : en:00:14:19.067
00:21:53.771 : en:00:21:53.771
00:28:23.368 : en:00:28:23.368
00:34:38.743 : en:00:34:38.743
00:42:15.658 : en:00:42:15.658
00:50:57.638 : en:00:50:57.638
00:57:45.837 : en:00:57:45.837
01:06:33.990 : en:01:06:33.990
01:16:45.768 : en:01:16:45.768
01:27:11.977 : en:01:27:11.977
загрузка...
Правила, инструкции, FAQ!!!
Торрент  Добавлен [30 апр 2014, 22:25] Скачать торрент
Скачать торрент
[ Размер 36.01 КБ / Просмотров 9 ]

Статус  
 
Размер  7.09 ГБ
Приватный: Нет (DHT включён)
.torrent скачан  0
Как залить торрент? | Как скачать Torrent? | Как смотреть и слушать онлайн?  


     Отправить личное сообщение
   
Страница 1 из 1
Показать сообщения за:  Поле сортировки  
Начать новую тему Ответить на тему

   Похожие торренты   Автор   Ответы   Просмотры   Последнее сообщение 
В этой теме нет новых непрочитанных сообщений. Скачать торрент Дело в тебе / A Case of You (2013) BDRip-AVC | L

в форуме Драмы, Мелодрамы, Размер: 1.46 ГБ, Здоровье: 0%

Anonymous

0
0|0

28
0

30 апр 2014, 17:06

Anonymous Перейти к последнему сообщению

В этой теме нет новых непрочитанных сообщений. Скачать торрент Дело в тебе / A Case of You (2013) BDRip 720p | L

в форуме 720p | 1080p, Размер: 3.94 ГБ, Здоровье: 0%

Anonymous

0
0|0

32
0

30 апр 2014, 22:20

Anonymous Перейти к последнему сообщению

В этой теме нет новых непрочитанных сообщений. Скачать торрент Дело №39 / Case 39 (2009) BDRip 1080p

в форуме 720p | 1080p, Размер: 4.37 ГБ, Здоровье: 0%

Anonymous

0
0|0

39
0

14 мар 2014, 13:41

Anonymous Перейти к последнему сообщению

В этой теме нет новых непрочитанных сообщений. Скачать торрент Дело №39 / Case 39 (Кристиан Алверт / Christian Alvart) [2009 г., Ужасы, триллер, BDRip] Dub + Original + Subs (Rus, Eng)

в форуме Ужасы, Размер: 2.18 ГБ, Здоровье: 0%

Anonymous

0
0|0

69
0

04 фев 2014, 21:27

Anonymous Перейти к последнему сообщению

В этой теме нет новых непрочитанных сообщений. Скачать торрент Проверен Дурацкое дело нехитрое / Kraftidioten (2014) BDRip 1080p | P

в форуме 720p | 1080p, Размер: 5.76 ГБ, Здоровье: 100%

Гость

0
298|41

66
556

26 май 2015, 23:37

Гость Перейти к последнему сообщению



Сейчас этот форум просматривают: нет зарегистрированных пользователей и гости: 1


Вы не можете начинать темы
Вы не можете отвечать на сообщения
Вы не можете редактировать свои сообщения
Вы не можете удалять свои сообщения
Вы не можете добавлять вложения

Перейти:  

!ВНИМАНИЕ!
 Ресурс не предоставляет электронные версии произведений, а занимается лишь коллекционированием и каталогизацией ссылок, присылаемых и публикуемых на форуме нашими читателями. Если вы являетесь правообладателем какого-либо представленного материала и не желаете чтобы ссылка на него находилась в нашем каталоге, свяжитесь с нами и мы незамедлительно удалим её. Файлы для обмена на трекере предоставлены пользователями сайта, и администрация не несёт ответственности за их содержание. Просьба не заливать файлы, защищенные авторскими правами, а также файлы нелегального содержания!