На всех торрентах на трекере установлена скидка на скачивание в размере 100 процентов(а).
 Возможность скачивания торрента НЕ зависит от ограничений при низком ратио, низком аплоаде, требуемом ратио или требуемом аплоаде.


Начать новую тему Ответить на тему
Статистика раздачи
Размер: 4.62 ГБ | Добавлен: 30 апр 2014, 22:01 | Скачали: 61
Сидеров: 5  [0 байт/сек]    Личеров: 0  [0 байт/сек]
Пред. тема | След. тема 

Автор
Сообщение

СообщениеДобавлено: 30 апр 2014, 22:01 

Вкратце:
Главный герой фильма – молодой дизайнер Майкл – решает помочь Крису, своему лучшему другу. Друг попал в беду: он наркоман, и самостоятельно справиться с зависимостью не сможет. Оставив в одиночестве беременную жену, Майкл отправляется на выручку и первым делом изолирует друга от наркотиков и обездвиживает. Впереди у них неделя наедине друг с другом, и Майкл решает осмотреться.

Очень скоро он случайно находит странную пластинку, на которой записан разговор двух людей, затем – видеокассету. А потом в компьютере Майкла сами собой начинают появляться видеофайлы, причем героями видеосюжетов становятся сами Майкл и Крис. Что интересно, не все события, запечатленные неизвестным наблюдателем, уже произошли, а это значит, что друзья получают в распоряжение своего рода «окно в будущее». Им лучше принять к сведению то, что они видят, ведь если верить записям, с ними случится нечто ужасное. Теперь главное – не допустить такого развития событий.


Название: Ломка
Оригинальное название: Resolution
Жанр: ужасы, триллер, детектив
Год выпуска: 2012
Режиссёр: Джастин Бенсон, Аарон Мурхед

В ролях: Питер Силелла, Винни Каррен, Занн МаКларно, Билл Оберст мл., Курт Дэвид Андерсон, Эмили Монтаг, Скайлер Мичам, Кармел Бенсон, Джастин Бенсон, Катрин Барнс





Выпущено: США
Продолжительность: 01:33:03
Озвучивание: Дублированное [Чистый звук] / Любительское (одноголосое) [den904]


Формат: MKV
Качество: BDRip 720p [VETO]
Видео: 5208 kb/s, 1280х536
Аудио: Russian [Дубляж] / [den904]: AC3, 192 kb/s (2 ch / English: DTS, 1510 kb/s (6 ch)
Субтитры: English
Дополнительно: Сохранены оригинальные чаптеры как на Blu-ray

Скачать: Сэмпл

Релиз группы:




Общее
Resolution.2012.Blu.Ray.720p.CINEMANIA.mkv
Формат : Matroska
Версия формата : Version 4 / Version 2
Размер файла : 4,62 Гбайт
Продолжительность : 1 ч. 33 м.
Общий поток : 7104 Кбит/сек
Название фильма : Release Group CINEMANIA
Дата кодирования : UTC 2014-04-30 15:57:27
Программа кодирования : mkvmerge v6.9.1 ('Blue Panther') 64bit built on Apr 18 2014 18:23:38
Библиотека кодирования : libebml v1.3.0 + libmatroska v1.4.1

Видео
Идентификатор : 1
Формат : AVC
Формат/Информация : Advanced Video Codec
Профиль формата : High@L4.1
Параметр CABAC формата : Да
Параметр ReFrames формата : 5 кадров
Идентификатор кодека : V_MPEG4/ISO/AVC
Продолжительность : 1 ч. 33 м.
Битрейт : 5208 Кбит/сек
Ширина : 1280 пикселей
Высота : 536 пикселей
Соотношение сторон : 2,40:1
Режим частоты кадров : Постоянный
Частота кадров : 23,976 кадра/сек
Цветовое пространство : YUV
Субдискретизация насыщенности : 4:2:0
Битовая глубина : 8 бит
Тип развёртки : Прогрессивная
Бит/(Пиксели*Кадры) : 0.317
Размер потока : 3,30 Гбайт (71%)
Заголовок : Release Group CINEMANIA
Библиотека кодирования : x264 core 142 r2431 ac76440
Настройки программы : cabac=1 / ref=5 / deblock=1:-3:-3 / analyse=0x3:0x133 / me=umh / subme=8 / psy=1 / psy_rd=1.00:0.15 / mixed_ref=1 / me_range=16 / chroma_me=1 / trellis=1 / 8x8dct=1 / cqm=0 / deadzone=21,11 / fast_pskip=0 / chroma_qp_offset=-4 / threads=18 / lookahead_threads=3 / sliced_threads=0 / nr=0 / decimate=1 / interlaced=0 / bluray_compat=0 / constrained_intra=0 / bframes=3 / b_pyramid=2 / b_adapt=2 / b_bias=0 / direct=3 / weightb=1 / open_gop=0 / weightp=2 / keyint=230 / keyint_min=22 / scenecut=40 / intra_refresh=0 / rc_lookahead=50 / rc=2pass / mbtree=1 / bitrate=5208 / ratetol=1.0 / qcomp=0.60 / qpmin=10 / qpmax=69 / qpstep=4 / cplxblur=20.0 / qblur=0.5 / ip_ratio=1.40 / aq=1:1.00
Язык : English
Default : Да
Forced : Нет

Аудио #1
Идентификатор : 2
Формат : AC-3
Формат/Информация : Audio Coding 3
Расширение режима : CM (complete main)
Параметр Endianness формата : Big
Идентификатор кодека : A_AC3
Продолжительность : 1 ч. 33 м.
Вид битрейта : Постоянный
Битрейт : 192 Кбит/сек
Каналы : 2 канала
Расположение каналов : Front: L R
Частота : 48,0 КГц
Битовая глубина : 16 бит
Метод сжатия : С потерями
Размер потока : 128 Мбайт (3%)
Заголовок : Дубляж (Чистый Звук)
Default : Нет
Forced : Нет

Аудио #2
Идентификатор : 3
Формат : AC-3
Формат/Информация : Audio Coding 3
Расширение режима : CM (complete main)
Параметр Endianness формата : Big
Идентификатор кодека : A_AC3
Продолжительность : 1 ч. 33 м.
Вид битрейта : Постоянный
Битрейт : 192 Кбит/сек
Каналы : 2 канала
Расположение каналов : Front: L R
Частота : 48,0 КГц
Битовая глубина : 16 бит
Метод сжатия : С потерями
Размер потока : 128 Мбайт (3%)
Заголовок : den904
Язык : Russian
Default : Нет
Forced : Нет

Аудио #3
Идентификатор : 4
Формат : DTS
Формат/Информация : Digital Theater Systems
Режим : 16
Параметр Endianness формата : Big
Идентификатор кодека : A_DTS
Продолжительность : 1 ч. 33 м.
Вид битрейта : Постоянный
Битрейт : 1509 Кбит/сек
Каналы : 6 каналов
Расположение каналов : Front: L C R, Side: L R, LFE
Частота : 48,0 КГц
Битовая глубина : 16 бит
Метод сжатия : С потерями
Размер потока : 1004 Мбайт (21%)
Язык : English
Default : Нет
Forced : Нет

Текст
Идентификатор : 5
Формат : UTF-8
Идентификатор кодека : S_TEXT/UTF8
Идентификатор кодека/Информация : UTF-8 Plain Text
Default : Нет
Forced : Нет

Меню
00:00:00.000 : en:00:00:00.000
00:06:59.961 : en:00:06:59.961
00:13:59.964 : en:00:13:59.964
00:20:59.967 : en:00:20:59.967
00:27:59.928 : en:00:27:59.928
00:34:59.931 : en:00:34:59.931
00:41:59.934 : en:00:41:59.934
00:48:59.895 : en:00:48:59.895
00:55:59.898 : en:00:55:59.898
01:02:59.942 : en:01:02:59.942
01:09:59.945 : en:01:09:59.945
01:16:59.906 : en:01:16:59.906
загрузка...
Правила, инструкции, FAQ!!!
Торрент  Добавлен [30 апр 2014, 22:01] Скачать торрент
Скачать торрент
[ Размер 23.66 КБ / Просмотров 7 ]

Статус  
 
Размер  4.62 ГБ
Приватный: Нет (DHT включён)
.torrent скачан  61
Как залить торрент? | Как скачать Torrent? | Как смотреть и слушать онлайн?  


     Отправить личное сообщение
   
Страница 1 из 1
Показать сообщения за:  Поле сортировки  
Начать новую тему Ответить на тему

   Похожие торренты   Автор   Ответы   Просмотры   Последнее сообщение 
В этой теме нет новых непрочитанных сообщений. Скачать торрент Проверен Rammstein: Videos 1995-2012 [2012, Industrial , BDRip (720p)]

в форуме Концерты (HD-Video), Размер: 21.24 ГБ, Здоровье: 100%

Гость

0
56|37

773
11

26 апр 2015, 22:42

Гость Перейти к последнему сообщению

В этой теме нет новых непрочитанных сообщений. Скачать торрент Проверен [iPad] 2012 / 2012 (Роланд Эммерих / Roland Emmerich) [2009, фантастика, боевик, приключения, BDRip, 720p]

в форуме Фильмы для iPod, iPhone, iPad, Размер: 4.31 ГБ, Здоровье: 100%

Гость

0
5|1

31
0

11 май 2015, 01:37

Гость Перейти к последнему сообщению

В этой теме нет новых непрочитанных сообщений. Скачать торрент Проверен (Rock) Rik Emmett & RESolution 9 - RES 9 - 2016, MP3, 320 kbps

в форуме Classic Rock & Hard Rock, Размер: 108.86 МБ, Здоровье: 100%

Anonymous

0
34|11

0
0

15 ноя 2016, 00:23

Anonymous Перейти к последнему сообщению

В этой теме нет новых непрочитанных сообщений. Скачать торрент Мистер пип / Mr. Pip (2012) BDRip 720p | L

в форуме 720p | 1080p, Размер: 5.85 ГБ, Здоровье: 100%

Anonymous

0
11|1

19
205

14 апр 2014, 21:06

Anonymous Перейти к последнему сообщению

В этой теме нет новых непрочитанных сообщений. Скачать торрент Мамы (2012) BDRip 720p

в форуме Драмы, Мелодрамы, Размер: 3 ГБ, Здоровье: 0%

Anonymous

0
0|0

55
0

06 янв 2014, 21:33

Anonymous Перейти к последнему сообщению



Сейчас этот форум просматривают: нет зарегистрированных пользователей и гости: 1


Вы не можете начинать темы
Вы не можете отвечать на сообщения
Вы не можете редактировать свои сообщения
Вы не можете удалять свои сообщения
Вы не можете добавлять вложения

Перейти:  

!ВНИМАНИЕ!
 Ресурс не предоставляет электронные версии произведений, а занимается лишь коллекционированием и каталогизацией ссылок, присылаемых и публикуемых на форуме нашими читателями. Если вы являетесь правообладателем какого-либо представленного материала и не желаете чтобы ссылка на него находилась в нашем каталоге, свяжитесь с нами и мы незамедлительно удалим её. Файлы для обмена на трекере предоставлены пользователями сайта, и администрация не несёт ответственности за их содержание. Просьба не заливать файлы, защищенные авторскими правами, а также файлы нелегального содержания!