На всех торрентах на трекере установлена скидка на скачивание в размере 100 процентов(а).
 Возможность скачивания торрента НЕ зависит от ограничений при низком ратио, низком аплоаде, требуемом ратио или требуемом аплоаде.


Начать новую тему Ответить на тему
Статистика раздачи
Размер: 9.84 ГБ | Добавлен: 30 апр 2014, 21:45 | Скачали: 0
Сидеров: 0  [0 байт/сек]    Личеров: 0  [0 байт/сек]
Пред. тема | След. тема 

Автор
Сообщение

СообщениеДобавлено: 30 апр 2014, 21:45 

Вкратце:
Фильм «Возмездие» (The Railway Man) – реальная история, в основе которой лежит одноименный роман Эрика Ломакса.

Английский офицер Эрик Ломакс во время Второй мировой оказался в японском плену и вынужден был пройти через ад концентрационных лагерей. Эрику пришлось пережить немало пыток, однако японцы так и не добились от него никаких сведений. Позже он принял участие в строительстве железных дорог в джунглях Таиланда, и лишь после окончания войны был освобождён и отправился домой. Долгие годы он мечтал о мести, но в конце концов простил тех, кто его пытал и даже согласился встретиться с одним из них на печально известном мосту над рекой Квай.


Название: Возмездие
Оригинальное название: The Railway Man
Год выхода: 2013
Жанр: драма, биография
Режиссер: Джонатан Теплицки

В ролях: Николь Кидман, Колин Фёрт, Стеллан Скарсгард, Джереми Ирвин, Хироюки Санада, Том Хоббс, Сэм Рейд, Марта Дюссельдорп, Джеймс Фрайзер, Ивен Лесли



Выпущено: Австралия, Великобритания
Продолжительность: 01:56:19
Озвучивание: Профессиональное (двухголосое) [Пиратская Студия]
Любительское (двухголосое) [qwerty & R.A.I.M.]


Формат: MKV
Качество: BDRip 1080p [AMIABLE]
Видео: 8268 kb/s, 1920x800
Аудио:
Russian: [Пиратская Студия]: AC3, 384 kb/s (6 ch)
Russian: [qwerty & R.A.I.M.]: DTS, 1510 kb/s (6 ch) / AC3, 448 kb/s (6 ch) English: DTS, 1510 kb/s (6 ch)
Субтитры: Russian [notabenoid], English
Дополнительно: Сохранены оригинальные чаптеры как на Blu-Ray

Скачать: Сэмпл

Релиз группы:




Общее
The.Railway.Man.2013.Blu.Ray.1080p.CINEMANIA.mkv
Формат : Matroska
Версия формата : Version 4 / Version 2
Размер файла : 9,84 Гбайт
Продолжительность : 1 ч. 56 м.
Общий поток : 12,1 Мбит/сек
Название фильма : Release Group CINEMANIA
Дата кодирования : UTC 2014-04-30 17:49:17
Программа кодирования : mkvmerge v6.9.1 ('Blue Panther') 64bit built on Apr 18 2014 18:23:38
Библиотека кодирования : libebml v1.3.0 + libmatroska v1.4.1

Видео
Идентификатор : 1
Формат : AVC
Формат/Информация : Advanced Video Codec
Профиль формата : High@L4.1
Параметр CABAC формата : Да
Параметр ReFrames формата : 5 кадров
Идентификатор кодека : V_MPEG4/ISO/AVC
Продолжительность : 1 ч. 56 м.
Битрейт : 8268 Кбит/сек
Ширина : 1920 пикселей
Высота : 800 пикселей
Соотношение сторон : 2,40:1
Режим частоты кадров : Постоянный
Частота кадров : 23,976 кадра/сек
Цветовое пространство : YUV
Субдискретизация насыщенности : 4:2:0
Битовая глубина : 8 бит
Тип развёртки : Прогрессивная
Бит/(Пиксели*Кадры) : 0.225
Размер потока : 6,52 Гбайт (66%)
Заголовок : Release Group CINEMANIA
Библиотека кодирования : x264 core 142 r2409 d6b4e63
Настройки программы : cabac=1 / ref=5 / deblock=1:-3:-3 / analyse=0x3:0x113 / me=umh / subme=8 / psy=1 / psy_rd=1.00:0.00 / mixed_ref=1 / me_range=16 / chroma_me=1 / trellis=1 / 8x8dct=1 / cqm=0 / deadzone=21,11 / fast_pskip=1 / chroma_qp_offset=-2 / threads=12 / lookahead_threads=2 / sliced_threads=0 / nr=0 / decimate=1 / interlaced=0 / bluray_compat=0 / constrained_intra=0 / bframes=3 / b_pyramid=2 / b_adapt=2 / b_bias=0 / direct=3 / weightb=1 / open_gop=0 / weightp=2 / keyint=240 / keyint_min=24 / scenecut=40 / intra_refresh=0 / rc_lookahead=50 / rc=2pass / mbtree=1 / bitrate=8268 / ratetol=1.0 / qcomp=0.60 / qpmin=0 / qpmax=69 / qpstep=4 / cplxblur=20.0 / qblur=0.5 / ip_ratio=1.40 / aq=1:1.00
Язык : English
Default : Да
Forced : Нет

Аудио #1
Идентификатор : 2
Формат : AC-3
Формат/Информация : Audio Coding 3
Расширение режима : CM (complete main)
Параметр Endianness формата : Big
Идентификатор кодека : A_AC3
Продолжительность : 1 ч. 56 м.
Вид битрейта : Постоянный
Битрейт : 384 Кбит/сек
Каналы : 6 каналов
Расположение каналов : Front: L C R, Side: L R, LFE
Частота : 48,0 КГц
Битовая глубина : 16 бит
Метод сжатия : С потерями
Размер потока : 319 Мбайт (3%)
Заголовок : Пиратская Студия
Язык : Russian
Default : Да
Forced : Да

Аудио #2
Идентификатор : 3
Формат : DTS
Формат/Информация : Digital Theater Systems
Режим : 16
Параметр Endianness формата : Big
Идентификатор кодека : A_DTS
Продолжительность : 1 ч. 56 м.
Вид битрейта : Постоянный
Битрейт : 1510 Кбит/сек
Каналы : 6 каналов
Расположение каналов : Front: L C R, Side: L R, LFE
Частота : 48,0 КГц
Битовая глубина : 24 бит
Метод сжатия : С потерями
Размер потока : 1,23 Гбайт (12%)
Заголовок : qwerty & R.A.I.M.
Язык : Russian
Default : Нет
Forced : Нет

Аудио #3
Идентификатор : 4
Формат : AC-3
Формат/Информация : Audio Coding 3
Расширение режима : CM (complete main)
Параметр Endianness формата : Big
Идентификатор кодека : A_AC3
Продолжительность : 1 ч. 56 м.
Вид битрейта : Постоянный
Битрейт : 448 Кбит/сек
Каналы : 6 каналов
Расположение каналов : Front: L C R, Side: L R, LFE
Частота : 48,0 КГц
Битовая глубина : 16 бит
Метод сжатия : С потерями
Размер потока : 373 Мбайт (4%)
Заголовок : qwerty & R.A.I.M.
Язык : Russian
Default : Нет
Forced : Нет

Аудио #4
Идентификатор : 5
Формат : DTS
Формат/Информация : Digital Theater Systems
Режим : 16
Параметр Endianness формата : Big
Идентификатор кодека : A_DTS
Продолжительность : 1 ч. 56 м.
Вид битрейта : Постоянный
Битрейт : 1509 Кбит/сек
Каналы : 6 каналов
Расположение каналов : Front: L C R, Side: L R, LFE
Частота : 48,0 КГц
Битовая глубина : 24 бит
Метод сжатия : С потерями
Размер потока : 1,23 Гбайт (12%)
Язык : English
Default : Нет
Forced : Нет

Текст #1
Идентификатор : 6
Формат : UTF-8
Идентификатор кодека : S_TEXT/UTF8
Идентификатор кодека/Информация : UTF-8 Plain Text
Заголовок : notabenoid
Язык : Russian
Default : Нет
Forced : Нет

Текст #2
Идентификатор : 7
Формат : UTF-8
Идентификатор кодека : S_TEXT/UTF8
Идентификатор кодека/Информация : UTF-8 Plain Text
Заголовок : SDH
Язык : English
Default : Нет
Forced : Нет

Текст #3
Идентификатор : 8
Формат : UTF-8
Идентификатор кодека : S_TEXT/UTF8
Идентификатор кодека/Информация : UTF-8 Plain Text
Язык : English
Default : Нет
Forced : Нет

Меню
00:00:00.000 : en:00:00:00.000
00:15:30.888 : en:00:15:30.888
00:28:08.437 : en:00:28:08.437
00:45:06.078 : en:00:45:06.078
01:03:45.030 : en:01:03:45.030
01:13:11.762 : en:01:13:11.762
01:29:38.623 : en:01:29:38.623
01:48:52.401 : en:01:48:52.401
загрузка...
Правила, инструкции, FAQ!!!
Торрент  Добавлен [30 апр 2014, 21:45] Скачать торрент
Скачать торрент
[ Размер 49.8 КБ / Просмотров 6 ]

Статус  
 
Размер  9.84 ГБ
Приватный: Нет (DHT включён)
.torrent скачан  0
Как залить торрент? | Как скачать Torrent? | Как смотреть и слушать онлайн?  


     Отправить личное сообщение
   
Страница 1 из 1
Показать сообщения за:  Поле сортировки  
Начать новую тему Ответить на тему

   Похожие торренты   Автор   Ответы   Просмотры   Последнее сообщение 
В этой теме нет новых непрочитанных сообщений. Скачать торрент Возмездие / The Railway Man (2013) BDRip 720p | P2, L2

в форуме 720p | 1080p, Размер: 7.37 ГБ, Здоровье: 0%

Anonymous

0
0|0

21
0

30 апр 2014, 21:41

Anonymous Перейти к последнему сообщению

В этой теме нет новых непрочитанных сообщений. Скачать торрент Возмездие / The Railway Man (2013) HDRip | L1

в форуме Драмы, Мелодрамы, Размер: 1.29 ГБ, Здоровье: 0%

Anonymous

0
0|0

17
0

29 апр 2014, 11:16

Anonymous Перейти к последнему сообщению

В этой теме нет новых непрочитанных сообщений. Скачать торрент Возмездие / The Railway Man (2013) HDRip | Пиратская Студия

в форуме Драмы, Мелодрамы, Размер: 2.05 ГБ, Здоровье: 0%

Anonymous

0
0|0

17
0

30 апр 2014, 21:37

Anonymous Перейти к последнему сообщению

В этой теме нет новых непрочитанных сообщений. Скачать торрент Проверен Возмездие / Edge of Darkness (2010) BDRip 720p

в форуме 720p | 1080p, Размер: 2.7 ГБ, Здоровье: 100%

Anonymous

0
28|3

26
602

06 авг 2014, 14:29

Anonymous Перейти к последнему сообщению

В этой теме нет новых непрочитанных сообщений. Скачать торрент Звёздный путь 10: Возмездие / Star Trek X: Nemesis (Стюарт Бейрд / Stuart Baird) [2002 г., фантастика, боевик, приключения, BDRip-AVC]

в форуме Фантастика, Фэнтези, Размер: 1.45 ГБ, Здоровье: 100%

Anonymous

0
56|19

45
0

22 апр 2014, 11:39

Anonymous Перейти к последнему сообщению



Сейчас этот форум просматривают: нет зарегистрированных пользователей и гости: 1


Вы не можете начинать темы
Вы не можете отвечать на сообщения
Вы не можете редактировать свои сообщения
Вы не можете удалять свои сообщения
Вы не можете добавлять вложения

Перейти:  

!ВНИМАНИЕ!
 Ресурс не предоставляет электронные версии произведений, а занимается лишь коллекционированием и каталогизацией ссылок, присылаемых и публикуемых на форуме нашими читателями. Если вы являетесь правообладателем какого-либо представленного материала и не желаете чтобы ссылка на него находилась в нашем каталоге, свяжитесь с нами и мы незамедлительно удалим её. Файлы для обмена на трекере предоставлены пользователями сайта, и администрация не несёт ответственности за их содержание. Просьба не заливать файлы, защищенные авторскими правами, а также файлы нелегального содержания!