На всех торрентах на трекере установлена скидка на скачивание в размере 100 процентов(а).
 Возможность скачивания торрента НЕ зависит от ограничений при низком ратио, низком аплоаде, требуемом ратио или требуемом аплоаде.


Начать новую тему Ответить на тему
Статистика раздачи
Размер: 3.84 ГБ | Добавлен: 28 апр 2014, 22:31 | Скачали: 0
Сидеров: 0  [0 байт/сек]    Личеров: 0  [0 байт/сек]
Пред. тема | След. тема 

Автор
Сообщение

СообщениеДобавлено: 28 апр 2014, 22:31 

Вкратце:
В прошлом Джо был преступником, но теперь он исправился и старается вести законопослушную жизнь. Неожиданно для самого себя Джо становится наставником для 15-летнего подростка Гэри, живущего вместе со своим отцом-алкоголиком на улице. Подружившись, Джо и Гэри вместе пытаются сделать всё, чтоб изменить свою судьбу к лучшему, однако в их захолустном городке вырваться из оков бедности очень сложно.



Название: Джо
Оригинальное название: Joe
Год выхода: 2013
Жанр: криминал, драма
Режиссер: Дэвид Гордон Грин

В ролях: Ронни Джин Блевинс, Сью Рок, Брайан Мейс, Гари Поултер, Тай Шеридан, Николас Кейдж, Адриэн Мишлер, Хезер Кафка, Бренда Исаак Бут, Адж Уилсон МакФол




Выпущено: США
Продолжительность: 01:57:45
Озвучивание: Профессиональное (двухголосое) [Пиратская студия]


Формат: MKV
Качество: WEB-DL 1080p [PHD]
Видео: 3803 kb/s, 1912x808
Аудио: Russian / English: AC3, 384 kb/s (6 ch)
Субтитры: English
Дополнительно: Сохранены оригинальные чаптеры как на Blu-Ray

Скачать: Сэмпл

Релиз группы:



Общее
Joe.2013.WED-DL.1080p.CINEMANIA.mkv
Формат : Matroska
Версия формата : Version 4 / Version 2
Размер файла : 3,84 Гбайт
Продолжительность : 1 ч. 57 м.
Общий поток : 4664 Кбит/сек
Название фильма : Release Group CINEMANIA
Дата кодирования : UTC 2014-04-28 18:06:33
Программа кодирования : mkvmerge v6.9.1 ('Blue Panther') 64bit built on Apr 18 2014 18:23:38
Библиотека кодирования : libebml v1.3.0 + libmatroska v1.4.1

Видео
Идентификатор : 1
Формат : AVC
Формат/Информация : Advanced Video Codec
Профиль формата : High@L4.0
Параметр CABAC формата : Да
Параметр ReFrames формата : 5 кадров
Идентификатор кодека : V_MPEG4/ISO/AVC
Продолжительность : 1 ч. 57 м.
Битрейт : 3803 Кбит/сек
Ширина : 1912 пикселей
Высота : 808 пикселей
Соотношение сторон : 2,35:1
Режим частоты кадров : Постоянный
Частота кадров : 23,976 кадра/сек
Цветовое пространство : YUV
Субдискретизация насыщенности : 4:2:0
Битовая глубина : 8 бит
Тип развёртки : Прогрессивная
Бит/(Пиксели*Кадры) : 0.103
Размер потока : 3,13 Гбайт (82%)
Заголовок : Release Group CINEMANIA
Язык : English
Default : Да
Forced : Нет
Основные цвета : BT.709
Характеристики трансфера : BT.709
Коэффициенты матрицы : BT.709

Аудио #1
Идентификатор : 2
Формат : AC-3
Формат/Информация : Audio Coding 3
Расширение режима : CM (complete main)
Параметр Endianness формата : Big
Идентификатор кодека : A_AC3
Продолжительность : 1 ч. 57 м.
Вид битрейта : Постоянный
Битрейт : 384 Кбит/сек
Каналы : 6 каналов
Расположение каналов : Front: L C R, Side: L R, LFE
Частота : 48,0 КГц
Битовая глубина : 16 бит
Метод сжатия : С потерями
Размер потока : 323 Мбайт (8%)
Язык : Russian
Default : Да
Forced : Да

Аудио #2
Идентификатор : 3
Формат : AC-3
Формат/Информация : Audio Coding 3
Расширение режима : CM (complete main)
Параметр Endianness формата : Big
Идентификатор кодека : A_AC3
Продолжительность : 1 ч. 57 м.
Вид битрейта : Постоянный
Битрейт : 384 Кбит/сек
Каналы : 6 каналов
Расположение каналов : Front: L C R, Side: L R, LFE
Частота : 48,0 КГц
Битовая глубина : 16 бит
Метод сжатия : С потерями
Размер потока : 323 Мбайт (8%)
Язык : English
Default : Нет
Forced : Нет

Текст
Идентификатор : 4
Формат : UTF-8
Идентификатор кодека : S_TEXT/UTF8
Идентификатор кодека/Информация : UTF-8 Plain Text
Язык : English
Default : Нет
Forced : Нет

Меню
00:00:00.000 : en:Chapter 1
00:09:47.000 : en:Chapter 2
00:19:50.000 : en:Chapter 3
00:30:29.000 : en:Chapter 4
00:42:14.000 : en:Chapter 5
00:53:26.000 : en:Chapter 6
01:05:06.000 : en:Chapter 7
01:13:27.000 : en:Chapter 8
01:23:26.000 : en:Chapter 9
01:32:53.000 : en:Chapter 10
01:41:53.000 : en:Chapter 11
01:51:38.000 : en:Chapter 12
загрузка...
Правила, инструкции, FAQ!!!
Торрент  Добавлен [28 апр 2014, 22:31] Скачать торрент
Скачать торрент
[ Размер 19.75 КБ / Просмотров 3 ]

Статус  
 
Размер  3.84 ГБ
Приватный: Нет (DHT включён)
.torrent скачан  0
Как залить торрент? | Как скачать Torrent? | Как смотреть и слушать онлайн?  


     Отправить личное сообщение
   
Страница 1 из 1
Показать сообщения за:  Поле сортировки  
Начать новую тему Ответить на тему

   Похожие торренты   Автор   Ответы   Просмотры   Последнее сообщение 
В этой теме нет новых непрочитанных сообщений. Скачать торрент Проверен Kings of Leon - Live at iTunes Festival (11.09.2013) [2013,Rock, WEB-DL 1080p]

в форуме Концерты (HD-Video), Размер: 6 ГБ, Здоровье: 100%

Anonymous

0
2|1

66
0

29 апр 2015, 19:20

Anonymous Перейти к последнему сообщению

В этой теме нет новых непрочитанных сообщений. Скачать торрент Проверен Pixies - Live at iTunes Festival (25.09.2013) [2013, Alternative rock, WEB-DL 1080p]

в форуме Концерты (HD-Video), Размер: 5.63 ГБ, Здоровье: 100%

Anonymous

0
2|1

1
0

23 окт 2016, 15:52

Anonymous Перейти к последнему сообщению

В этой теме нет новых непрочитанных сообщений. Скачать торрент Проверен Tom Odell - Live at iTunes Festival (12.09.2013) [2013, Indie Pop / Piano, WEB-DL 1080p]

в форуме Концерты (HD-Video), Размер: 2.55 ГБ, Здоровье: 0%

Anonymous

0
0|0

1
0

23 окт 2016, 13:10

Anonymous Перейти к последнему сообщению

В этой теме нет новых непрочитанных сообщений. Скачать торрент Проверен Elton John - Live at iTunes Festival (12.09.2013) [2013, Pop-Rock, WEB-DL 1080p]

в форуме Концерты (HD-Video), Размер: 6.43 ГБ, Здоровье: 100%

Anonymous

0
1|0

0
0

23 окт 2016, 11:34

Anonymous Перейти к последнему сообщению

В этой теме нет новых непрочитанных сообщений. Скачать торрент Проверен Feuertanz Festival 2013 [2013, Folk Rock/Metal, BDRip 1080p]

в форуме Концерты (HD-Video), Размер: 9.84 ГБ, Здоровье: 100%

Anonymous

0
2|1

0
0

23 окт 2016, 13:38

Anonymous Перейти к последнему сообщению



Сейчас этот форум просматривают: нет зарегистрированных пользователей и гости: 2


Вы не можете начинать темы
Вы не можете отвечать на сообщения
Вы не можете редактировать свои сообщения
Вы не можете удалять свои сообщения
Вы не можете добавлять вложения

Перейти:  

!ВНИМАНИЕ!
 Ресурс не предоставляет электронные версии произведений, а занимается лишь коллекционированием и каталогизацией ссылок, присылаемых и публикуемых на форуме нашими читателями. Если вы являетесь правообладателем какого-либо представленного материала и не желаете чтобы ссылка на него находилась в нашем каталоге, свяжитесь с нами и мы незамедлительно удалим её. Файлы для обмена на трекере предоставлены пользователями сайта, и администрация не несёт ответственности за их содержание. Просьба не заливать файлы, защищенные авторскими правами, а также файлы нелегального содержания!