На всех торрентах на трекере установлена скидка на скачивание в размере 100 процентов(а).
 Возможность скачивания торрента НЕ зависит от ограничений при низком ратио, низком аплоаде, требуемом ратио или требуемом аплоаде.


Начать новую тему Ответить на тему
Статистика раздачи
Размер: 4.81 ГБ | Добавлен: 24 апр 2014, 17:29 | Скачали: 29
Сидеров: 0  [0 байт/сек]    Личеров: 0  [0 байт/сек]
Пред. тема | След. тема 

Автор
Сообщение

СообщениеДобавлено: 24 апр 2014, 17:29 

Вкратце:
Эта необыкновенная история разворачивается вскоре после окончания второй Мировой войны в Альпах, где горные пики флиртуют с облаками. Эта история расскажет о мальчике, который ищет свою мать; о пожилом человеке, занятом поисками своей бывшей возлюбленной; о молодой женщине, жаждущей приключений; о немецком лейтенанте мечтающем прощении и, наконец, о Себастьяне, который укрощает прекрасную Белль...


Название: Белль и Себастьян
Оригинальное название: Belle et Sebastien
Год выхода: 2013
Жанр: приключения
Режиссер: Николя Ванье

В ролях: Феликс Боссюэ, Чеки Карио, Марго Шателье, Дмитрий Сторож, Андреас Питшманн, Юрбен Канселье, Мехди Эль Глауи, Ян Оливер Шредер, Том Зоммерлатте





Выпущено: Франция
Продолжительность: 01:39:28
Озвучивание: Любительское (одноголосое) [АнВад]


Формат: MKV
Качество: BDRip 720p [Friday28th]
Видео: 5513 kb/s, 1280x544
Аудио: Russian: AC3, 640 kb/s (6 ch) / French: DTS, 768 kb/s (6 ch)
Субтитры: Russian [adamovna]

Скачать: Сэмпл

Релиз группы:



Общее
Belle.Et.Sebastien.2013.Blu.Ray.720p.CINEMANIA.mkv
Формат : Matroska
Версия формата : Version 4 / Version 2
Размер файла : 4,81 Гбайт
Продолжительность : 1 ч. 39 м.
Общий поток : 6924 Кбит/сек
Название фильма : Release Group CINEMANIA
Дата кодирования : UTC 2014-04-24 11:28:24
Программа кодирования : mkvmerge v6.9.1 ('Blue Panther') 64bit built on Apr 18 2014 18:23:38
Библиотека кодирования : libebml v1.3.0 + libmatroska v1.4.1

Видео
Идентификатор : 1
Формат : AVC
Формат/Информация : Advanced Video Codec
Профиль формата : High@L4.1
Параметр CABAC формата : Да
Параметр ReFrames формата : 5 кадров
Идентификатор кодека : V_MPEG4/ISO/AVC
Продолжительность : 1 ч. 39 м.
Битрейт : 5513 Кбит/сек
Ширина : 1280 пикселей
Высота : 544 пикселя
Соотношение сторон : 2,35:1
Режим частоты кадров : Постоянный
Частота кадров : 24,000 кадра/сек
Цветовое пространство : YUV
Субдискретизация насыщенности : 4:2:0
Битовая глубина : 8 бит
Тип развёртки : Прогрессивная
Бит/(Пиксели*Кадры) : 0.330
Размер потока : 3,74 Гбайт (78%)
Заголовок : Release Group CINEMANIA
Библиотека кодирования : x264 core 142 r2409 d6b4e63
Настройки программы : cabac=1 / ref=5 / deblock=1:0:0 / analyse=0x3:0x133 / me=umh / subme=8 / psy=1 / psy_rd=1.00:0.00 / mixed_ref=1 / me_range=16 / chroma_me=1 / trellis=1 / 8x8dct=1 / cqm=0 / deadzone=21,11 / fast_pskip=0 / chroma_qp_offset=-2 / threads=12 / lookahead_threads=2 / sliced_threads=0 / nr=0 / decimate=1 / interlaced=0 / bluray_compat=0 / constrained_intra=0 / bframes=3 / b_pyramid=2 / b_adapt=2 / b_bias=0 / direct=3 / weightb=1 / open_gop=0 / weightp=2 / keyint=250 / keyint_min=24 / scenecut=40 / intra_refresh=0 / rc_lookahead=50 / rc=2pass / mbtree=1 / bitrate=5513 / ratetol=1.0 / qcomp=0.60 / qpmin=0 / qpmax=69 / qpstep=4 / cplxblur=20.0 / qblur=0.5 / ip_ratio=1.40 / aq=1:1.00
Язык : English
Default : Да
Forced : Нет

Аудио #1
Идентификатор : 2
Формат : AC-3
Формат/Информация : Audio Coding 3
Расширение режима : CM (complete main)
Параметр Endianness формата : Big
Идентификатор кодека : A_AC3
Продолжительность : 1 ч. 39 м.
Вид битрейта : Постоянный
Битрейт : 640 Кбит/сек
Каналы : 6 каналов
Расположение каналов : Front: L C R, Side: L R, LFE
Частота : 48,0 КГц
Битовая глубина : 16 бит
Метод сжатия : С потерями
Размер потока : 455 Мбайт (9%)
Заголовок : АнВад
Язык : Russian
Default : Да
Forced : Да

Аудио #2
Идентификатор : 3
Формат : DTS
Формат/Информация : Digital Theater Systems
Режим : 16
Параметр Endianness формата : Big
Идентификатор кодека : A_DTS
Продолжительность : 1 ч. 39 м.
Вид битрейта : Постоянный
Битрейт : 768 Кбит/сек
Каналы : 6 каналов
Расположение каналов : Front: L C R, Side: L R, LFE
Частота : 48,0 КГц
Битовая глубина : 24 бит
Метод сжатия : С потерями
Размер потока : 546 Мбайт (11%)
Язык : French
Default : Нет
Forced : Нет

Текст
Идентификатор : 4
Формат : UTF-8
Идентификатор кодека : S_TEXT/UTF8
Идентификатор кодека/Информация : UTF-8 Plain Text
Заголовок : adamovna
Язык : Russian
Default : Нет
Forced : Нет

загрузка...
Правила, инструкции, FAQ!!!
Торрент  Добавлен [24 апр 2014, 17:29] Скачать торрент
Скачать торрент
[ Размер 24.63 КБ / Просмотров 7 ]

Статус  
 
Размер  4.81 ГБ
Приватный: Нет (DHT включён)
.torrent скачан  29
Как залить торрент? | Как скачать Torrent? | Как смотреть и слушать онлайн?  


     Отправить личное сообщение
   
Страница 1 из 1
Показать сообщения за:  Поле сортировки  
Начать новую тему Ответить на тему

   Похожие торренты   Автор   Ответы   Просмотры   Последнее сообщение 
В этой теме нет новых непрочитанных сообщений. Скачать торрент Белль и Себастьян / Belle et Sebastien (2013) BDRip 1080p | L1

в форуме 720p | 1080p, Размер: 7 ГБ, Здоровье: 100%

Anonymous

0
3|0

74
39

24 апр 2014, 17:32

Anonymous Перейти к последнему сообщению

В этой теме нет новых непрочитанных сообщений. Скачать торрент Белль и Себастьян / Belle et Sebastien (2013) HDRip | L1

в форуме Приключения, Размер: 1.36 ГБ, Здоровье: 100%

Anonymous

0
12|0

112
80

24 апр 2014, 17:16

Anonymous Перейти к последнему сообщению

В этой теме нет новых непрочитанных сообщений. Скачать торрент Проверен Белль / Belle (2013) BDRip 720p | L1

в форуме 720p | 1080p, Размер: 5.63 ГБ, Здоровье: 100%

Anonymous

0
24|0

75
727

15 авг 2014, 16:41

Anonymous Перейти к последнему сообщению

В этой теме нет новых непрочитанных сообщений. Скачать торрент Проверен Белль / Belle (2013) BDRip | L1

в форуме Драмы, Мелодрамы, Размер: 1.44 ГБ, Здоровье: 100%

Anonymous

0
126|5

79
1525

15 авг 2014, 16:38

Anonymous Перейти к последнему сообщению

В этой теме нет новых непрочитанных сообщений. Скачать торрент Проверен Белль / Belle (2013) BDRip-AVC | P, L1

в форуме Драмы, Мелодрамы, Размер: 2.34 ГБ, Здоровье: 100%

Гость

0
22|5

143
40

17 окт 2015, 18:28

Гость Перейти к последнему сообщению



Сейчас этот форум просматривают: нет зарегистрированных пользователей и гости: 1


Вы не можете начинать темы
Вы не можете отвечать на сообщения
Вы не можете редактировать свои сообщения
Вы не можете удалять свои сообщения
Вы не можете добавлять вложения

Перейти:  

!ВНИМАНИЕ!
 Ресурс не предоставляет электронные версии произведений, а занимается лишь коллекционированием и каталогизацией ссылок, присылаемых и публикуемых на форуме нашими читателями. Если вы являетесь правообладателем какого-либо представленного материала и не желаете чтобы ссылка на него находилась в нашем каталоге, свяжитесь с нами и мы незамедлительно удалим её. Файлы для обмена на трекере предоставлены пользователями сайта, и администрация не несёт ответственности за их содержание. Просьба не заливать файлы, защищенные авторскими правами, а также файлы нелегального содержания!