На всех торрентах на трекере установлена скидка на скачивание в размере 100 процентов(а).
 Возможность скачивания торрента НЕ зависит от ограничений при низком ратио, низком аплоаде, требуемом ратио или требуемом аплоаде.


Начать новую тему Ответить на тему
Статистика раздачи
Размер: 5.62 ГБ | Добавлен: 22 апр 2014, 20:54 | Скачали: 84
Сидеров: 13  [0 байт/сек]    Личеров: 1  [0 байт/сек]
Пред. тема | След. тема 

Автор
Сообщение

СообщениеДобавлено: 22 апр 2014, 20:54 

Вкратце:
Спис – плейбой, гедонист, либертин. Журналистов он может принять в окружении обнаженных молодых девиц и даже зайти в клетку к разъяренной гориллы без штанов. Глиструп – зануда, ему не интересны вечеринки и всю свою жизнь он хранил верность жене. Один из них – магнат-мультимиллиардер, второй же – юрист, способный найти любую лазейку в контракте или же правовом кодексе. В 1965 году Спис с помощью Глиструпа провернул аферу, в результате которой Спис стал владельцем турагентства и авиакомпании. С этого момента началась их многолетняя дружба.


Название: Всё, что вы хотели знать о сексе и налогах
Оригинальное название: Spies & Glistrup
Год выхода: 2013
Жанр: драма, биография
Режиссер: Кристоффер Боэ

В ролях: Йохан Филип Асбек, Николас Бро, Еспер Кристенсен, Якоб Хёйлев Ёргенсон, Каспер Лайснер, Трине Паллесен





Выпущено: Дания
Продолжительность: 01:47:14
Озвучивание: Любительское (многоголосое) [Точка Zрения]


Формат: MKV
Качество: BDRip 720p [CONDITION]
Видео: 5292 kb/s, 1280x536
Аудио: Russian: AC3, 192 kb/s (2 ch) / Danish: DTS, 1510 kb/s (6 ch)
Субтитры: Russian [Елена Володина], English
Дополнительно: Сохранены оригинальные чаптеры как на Blu-ray

Скачать: Сэмпл

Релиз группы:



Общее
Spies.Og.Glistrup.2013.Blu.Ray.720p.CINEMANIA.mkv
Формат : Matroska
Версия формата : Version 4 / Version 2
Размер файла : 5,62 Гбайт
Продолжительность : 1 ч. 55 м.
Общий поток : 6994 Кбит/сек
Название фильма : Release Group CINEMANIA
Дата кодирования : UTC 2014-04-22 13:41:38
Программа кодирования : mkvmerge v6.9.1 ('Blue Panther') 64bit built on Apr 18 2014 18:23:38
Библиотека кодирования : libebml v1.3.0 + libmatroska v1.4.1

Видео
Идентификатор : 1
Формат : AVC
Формат/Информация : Advanced Video Codec
Профиль формата : High@L4.1
Параметр CABAC формата : Да
Параметр ReFrames формата : 5 кадров
Идентификатор кодека : V_MPEG4/ISO/AVC
Продолжительность : 1 ч. 55 м.
Битрейт : 5292 Кбит/сек
Ширина : 1280 пикселей
Высота : 536 пикселей
Соотношение сторон : 2,40:1
Режим частоты кадров : Постоянный
Частота кадров : 24,000 кадра/сек
Цветовое пространство : YUV
Субдискретизация насыщенности : 4:2:0
Битовая глубина : 8 бит
Тип развёртки : Прогрессивная
Бит/(Пиксели*Кадры) : 0.321
Размер потока : 4,14 Гбайт (74%)
Заголовок : Release Group CINEMANIA
Библиотека кодирования : x264 core 140 r2377 1ca7bb9
Настройки программы : cabac=1 / ref=5 / deblock=1:0:0 / analyse=0x3:0x133 / me=umh / subme=7 / psy=1 / psy_rd=1.00:0.00 / mixed_ref=1 / me_range=16 / chroma_me=1 / trellis=1 / 8x8dct=1 / cqm=0 / deadzone=21,11 / fast_pskip=1 / chroma_qp_offset=-2 / threads=12 / lookahead_threads=2 / sliced_threads=0 / nr=0 / decimate=1 / interlaced=0 / bluray_compat=0 / constrained_intra=0 / bframes=3 / b_pyramid=2 / b_adapt=2 / b_bias=0 / direct=3 / weightb=1 / open_gop=0 / weightp=2 / keyint=250 / keyint_min=24 / scenecut=40 / intra_refresh=0 / rc_lookahead=50 / rc=2pass / mbtree=1 / bitrate=5292 / ratetol=1.0 / qcomp=0.60 / qpmin=0 / qpmax=69 / qpstep=4 / cplxblur=20.0 / qblur=0.5 / ip_ratio=1.40 / aq=1:1.00
Язык : Danish
Default : Да
Forced : Нет

Аудио #1
Идентификатор : 2
Формат : AC-3
Формат/Информация : Audio Coding 3
Расширение режима : CM (complete main)
Параметр Endianness формата : Big
Идентификатор кодека : A_AC3
Продолжительность : 1 ч. 55 м.
Вид битрейта : Постоянный
Битрейт : 192 Кбит/сек
Каналы : 2 канала
Расположение каналов : Front: L R
Частота : 48,0 КГц
Битовая глубина : 16 бит
Метод сжатия : С потерями
Размер потока : 158 Мбайт (3%)
Заголовок : Точка Zрения]
Язык : Russian
Default : Да
Forced : Да

Аудио #2
Идентификатор : 3
Формат : DTS
Формат/Информация : Digital Theater Systems
Режим : 16
Параметр Endianness формата : Big
Идентификатор кодека : A_DTS
Продолжительность : 1 ч. 55 м.
Вид битрейта : Постоянный
Битрейт : 1509 Кбит/сек
Каналы : 6 каналов
Расположение каналов : Front: L C R, Side: L R, LFE
Частота : 48,0 КГц
Битовая глубина : 24 бит
Метод сжатия : С потерями
Размер потока : 1,21 Гбайт (22%)
Язык : Danish
Default : Нет
Forced : Нет

Текст #1
Идентификатор : 4
Формат : UTF-8
Идентификатор кодека : S_TEXT/UTF8
Идентификатор кодека/Информация : UTF-8 Plain Text
Заголовок : Елена Володина
Язык : Russian
Default : Нет
Forced : Нет

Текст #2
Идентификатор : 5
Формат : UTF-8
Идентификатор кодека : S_TEXT/UTF8
Идентификатор кодека/Информация : UTF-8 Plain Text
Язык : English
Default : Нет
Forced : Нет

Меню
00:00:00.000 : en:00:00:00.000
00:10:00.000 : en:00:10:00.000
00:18:35.375 : en:00:18:35.375
00:29:40.750 : en:00:29:40.750
00:39:54.792 : en:00:39:54.792
00:50:00.000 : en:00:50:00.000
01:00:00.000 : en:01:00:00.000
01:10:23.958 : en:01:10:23.958
01:17:22.333 : en:01:17:22.333
01:29:56.500 : en:01:29:56.500
01:38:51.917 : en:01:38:51.917
01:49:39.208 : en:01:49:39.208
загрузка...
Правила, инструкции, FAQ!!!
Торрент  Добавлен [22 апр 2014, 20:54] Скачать торрент
Скачать торрент
[ Размер 28.69 КБ / Просмотров 6 ]

Статус  
 
Размер  5.62 ГБ
Приватный: Нет (DHT включён)
.torrent скачан  84
Как залить торрент? | Как скачать Torrent? | Как смотреть и слушать онлайн?  


     Отправить личное сообщение
   
Страница 1 из 1
Показать сообщения за:  Поле сортировки  
Начать новую тему Ответить на тему

   Похожие торренты   Автор   Ответы   Просмотры   Последнее сообщение 
В этой теме нет новых непрочитанных сообщений. Скачать торрент Всё, что вы хотели знать о сексе и налогах / Spies and Glistrup (2013) BDRip 1080p | L

в форуме 720p | 1080p, Размер: 10 ГБ, Здоровье: 100%

Anonymous

0
14|1

1586
63

22 апр 2014, 20:59

Anonymous Перейти к последнему сообщению

В этой теме нет новых непрочитанных сообщений. Скачать торрент Всё, что вы хотели знать о сексе и налогах / Spies and Glistrup (2013) HDRip | L

в форуме Драмы, Мелодрамы, Размер: 1.48 ГБ, Здоровье: 100%

Anonymous

0
56|0

563
2636

22 апр 2014, 22:02

Anonymous Перейти к последнему сообщению

В этой теме нет новых непрочитанных сообщений. Скачать торрент Спис и Глиструп: Секс, наркотики и налогообложение / Spies & Glistrup (2013) DVDRip | Sub

в форуме Драмы, Мелодрамы, Размер: 1.46 ГБ, Здоровье: 0%

Anonymous

0
0|0

1365
0

14 янв 2014, 10:24

Anonymous Перейти к последнему сообщению

В этой теме нет новых непрочитанных сообщений. Скачать торрент Как знать... / How Do You Know? (Джеймс Л. Брукс / James L. Brooks) [2010, США, Драма, мелодрама, комедия, BDRip] Dub

в форуме Драмы, Мелодрамы, Размер: 1.46 ГБ, Здоровье: 100%

Anonymous

0
14|5

50
0

01 апр 2014, 09:37

Anonymous Перейти к последнему сообщению

В этой теме нет новых непрочитанных сообщений. Скачать торрент Проверен Вся правда о налогах 2010 года. Пути оптимизации [M4B]

в форуме Аудиокниги (AAC, ALAC), Размер: 81.27 МБ, Здоровье: ???%

Anonymous

0
0|2

16
0

17 май 2015, 00:56

Anonymous Перейти к последнему сообщению



Сейчас этот форум просматривают: нет зарегистрированных пользователей и гости: 1


Вы не можете начинать темы
Вы не можете отвечать на сообщения
Вы не можете редактировать свои сообщения
Вы не можете удалять свои сообщения
Вы не можете добавлять вложения

Перейти:  

!ВНИМАНИЕ!
 Ресурс не предоставляет электронные версии произведений, а занимается лишь коллекционированием и каталогизацией ссылок, присылаемых и публикуемых на форуме нашими читателями. Если вы являетесь правообладателем какого-либо представленного материала и не желаете чтобы ссылка на него находилась в нашем каталоге, свяжитесь с нами и мы незамедлительно удалим её. Файлы для обмена на трекере предоставлены пользователями сайта, и администрация не несёт ответственности за их содержание. Просьба не заливать файлы, защищенные авторскими правами, а также файлы нелегального содержания!