На всех торрентах на трекере установлена скидка на скачивание в размере 100 процентов(а).
 Возможность скачивания торрента НЕ зависит от ограничений при низком ратио, низком аплоаде, требуемом ратио или требуемом аплоаде.


Начать новую тему Ответить на тему
Статистика раздачи
Размер: 4.38 ГБ | Добавлен: 21 апр 2014, 17:36 | Скачали: 1
Сидеров: 0  [0 байт/сек]    Личеров: 0  [0 байт/сек]
Пред. тема | След. тема 

Автор
Сообщение

СообщениеДобавлено: 21 апр 2014, 17:36 

Вкратце:
Дуглас - владелец фармацевтического отделения. Он простой законопослушный гражданин США, но как выясняется этот статус совсем не устраивает его жену, которая привыкла к роскоши и хорошим тусовкам. Однажды в его аптеку заходит Элизабет, за виагрой для своего мужа и у них начинается стремительный роман. Элизабет открывает герою искусство любви с помощью различных химических препаратов, которые позволяют продлевать и усиливать удовольствие от секса. Между их эротическими играми Элизабет думает о том, чтобы избавится от мужа и зажить на его деньги вместе с Дугласом. Удастся ли у них задуманное?


Название: Любовь, секс и химия
Оригинальное название: Better Living Through Chemistry
Год выпуска: 2014
Жанр: комедия, драма
Режиссер: Джофф Мур, Дэвид Посаментир

В ролях: Сэм Рокуэлл, Оливия Уайлд, Мишель Монахэн, Бен Шварц, Кен Ховард, Джейн Фонда, Рэй Лиотта, Норберт Лео Батц, Дженн Харрис, Харрисон Хольцер





Выпущено: США
Продолжительность: 01:31:43
Озвучивание: Любительское (одноголосое) [Pashaup]


Формат: MKV
Качество: BDRip 720p [WiKi]
Видео: 6000 kb/s, 1280x534
Аудио: Russian: AC3, 192 kb/s (2 ch) / English: AC3, 640 kb/s (6 ch)
Субтитры: Russian [notabenoid], English
Дополнительно: Сохранены оригинальные чаптеры как на Blu-Ray
Размер: 4.38 GB
Скачать: Сэмпл

Релиз группы:



Общее
Better.Living.Through.Chemistry.2014.Blu.Ray.720p.CINEMANIA.mkv
Формат : Matroska
Версия формата : Version 4 / Version 2
Размер файла : 4,38 Гбайт
Продолжительность : 1 ч. 31 м.
Общий поток : 6835 Кбит/сек
Название фильма : Release Group CINEMANIA
Дата кодирования : UTC 2014-04-08 07:07:40
Программа кодирования : mkvmerge v6.8.0 ('Theme for Great Cities') 64bit built on Mar 2 2014 21:34:26
Библиотека кодирования : libebml v1.3.0 + libmatroska v1.4.1

Видео
Идентификатор : 1
Формат : AVC
Формат/Информация : Advanced Video Codec
Профиль формата : High@L4.1
Параметр CABAC формата : Да
Параметр ReFrames формата : 12 кадров
Идентификатор кодека : V_MPEG4/ISO/AVC
Продолжительность : 1 ч. 31 м.
Битрейт : 6000 Кбит/сек
Ширина : 1280 пикселей
Высота : 534 пикселя
Соотношение сторон : 2,40:1
Режим частоты кадров : Постоянный
Частота кадров : 23,976 кадра/сек
Цветовое пространство : YUV
Субдискретизация насыщенности : 4:2:0
Битовая глубина : 8 бит
Тип развёртки : Прогрессивная
Бит/(Пиксели*Кадры) : 0.366
Размер потока : 3,76 Гбайт (86%)
Заголовок : Release Group CINEMANIA
Библиотека кодирования : x264 core 136 r2348+704+51 d1baef6 tMod [8-bit@all X86_64]
Настройки программы : cabac=1 / ref=12 / deblock=1:-2:-2 / analyse=0x3:0x133 / me=umh / subme=11 / psy=1 / fade_compensate=0.00 / psy_rd=1.05:0.05 / mixed_ref=1 / me_range=32 / chroma_me=1 / trellis=2 / 8x8dct=1 / cqm=0 / deadzone=21,11 / fast_pskip=0 / chroma_qp_offset=-3 / threads=12 / lookahead_threads=2 / sliced_threads=0 / nr=0 / decimate=0 / interlaced=0 / bluray_compat=0 / constrained_intra=0 / fgo=0 / bframes=8 / b_pyramid=2 / b_adapt=2 / b_bias=0 / direct=3 / weightb=1 / open_gop=0 / weightp=2 / keyint=250 / keyint_min=23 / scenecut=40 / intra_refresh=0 / rc=2pass / mbtree=0 / bitrate=6000 / ratetol=1.0 / qcomp=0.75 / qpmin=0:0:0 / qpmax=69:69:69 / qpstep=4 / cplxblur=20.0 / qblur=0.5 / ip_ratio=1.40 / pb_ratio=1.30 / aq=3:0.90 / aq-sensitivity=10.00 / aq-factor=1.00:1.00:1.00 / aq2=0 / aq3=0
Default : Да
Forced : Нет
Коэффициенты матрицы : BT.709

Аудио #1
Идентификатор : 2
Формат : AC-3
Формат/Информация : Audio Coding 3
Расширение режима : CM (complete main)
Параметр Endianness формата : Big
Идентификатор кодека : A_AC3
Продолжительность : 1 ч. 31 м.
Вид битрейта : Постоянный
Битрейт : 192 Кбит/сек
Каналы : 2 канала
Расположение каналов : Front: L R
Частота : 48,0 КГц
Битовая глубина : 16 бит
Метод сжатия : С потерями
Размер потока : 126 Мбайт (3%)
Заголовок : pashaup
Язык : Russian
Default : Да
Forced : Да

Аудио #2
Идентификатор : 3
Формат : AC-3
Формат/Информация : Audio Coding 3
Расширение режима : CM (complete main)
Параметр Endianness формата : Big
Идентификатор кодека : A_AC3
Продолжительность : 1 ч. 31 м.
Вид битрейта : Постоянный
Битрейт : 640 Кбит/сек
Каналы : 6 каналов
Расположение каналов : Front: L C R, Side: L R, LFE
Частота : 48,0 КГц
Битовая глубина : 16 бит
Метод сжатия : С потерями
Размер потока : 420 Мбайт (9%)
Язык : English
Default : Нет
Forced : Нет

Текст #1
Идентификатор : 4
Формат : UTF-8
Идентификатор кодека : S_TEXT/UTF8
Идентификатор кодека/Информация : UTF-8 Plain Text
Заголовок : notabenoid
Язык : Russian
Default : Нет
Forced : Нет

Текст #2
Идентификатор : 5
Формат : UTF-8
Идентификатор кодека : S_TEXT/UTF8
Идентификатор кодека/Информация : UTF-8 Plain Text
Язык : English
Default : Нет
Forced : Нет

Меню
00:00:00.000 : en:00:00:00.000
00:05:23.573 : en:00:05:23.573
00:10:36.427 : en:00:10:36.427
00:17:11.072 : en:00:17:11.072
00:23:22.776 : en:00:23:22.776
00:27:29.231 : en:00:27:29.231
00:31:21.505 : en:00:31:21.505
00:38:33.394 : en:00:38:33.394
00:42:44.312 : en:00:42:44.312
00:49:17.913 : en:00:49:17.913
00:54:55.167 : en:00:54:55.167
01:00:05.852 : en:01:00:05.852
01:04:24.402 : en:01:04:24.402
01:10:09.997 : en:01:10:09.997
01:14:41.352 : en:01:14:41.352
01:22:01.416 : en:01:22:01.416
загрузка...
Правила, инструкции, FAQ!!!
Торрент  Добавлен [21 апр 2014, 17:36] Скачать торрент
Скачать торрент
[ Размер 22.49 КБ / Просмотров 8 ]

Статус  
 
Размер  4.38 ГБ
Приватный: Нет (DHT включён)
.torrent скачан  1
Как залить торрент? | Как скачать Torrent? | Как смотреть и слушать онлайн?  


     Отправить личное сообщение
   
Страница 1 из 1
Показать сообщения за:  Поле сортировки  
Начать новую тему Ответить на тему

   Похожие торренты   Автор   Ответы   Просмотры   Последнее сообщение 
В этой теме нет новых непрочитанных сообщений. Скачать торрент Любовь, секс и химия / Better Living Through Chemistry (2013) BDRip 1080p

в форуме 720p | 1080p, Размер: 8.33 ГБ, Здоровье: 100%

Anonymous

0
15|1

39
117

21 апр 2014, 17:58

Anonymous Перейти к последнему сообщению

В этой теме нет новых непрочитанных сообщений. Скачать торрент Любовь, секс и химия / Better Living Through Chemistry (2014) HDRip | L1

в форуме Драмы, Мелодрамы, Размер: 1.38 ГБ, Здоровье: 100%

Anonymous

0
60|1

32
112

21 апр 2014, 17:30

Anonymous Перейти к последнему сообщению

В этой теме нет новых непрочитанных сообщений. Скачать торрент Проверен Любовь по рецепту и без / Better Living Through Chemistry (2014) BDRip 1080p | D, LM | лицензия

в форуме 720p | 1080p, Размер: 10.29 ГБ, Здоровье: 0%

Anonymous

0
0|0

46
1

16 авг 2014, 21:00

Anonymous Перейти к последнему сообщению

В этой теме нет новых непрочитанных сообщений. Скачать торрент Проверен Любовь по рецепту и без / Better Living Through Chemistry (2014) HDRip | D | лицензия

в форуме Драмы, Мелодрамы, Размер: 1.46 ГБ, Здоровье: 100%

Anonymous

0
384|9

41
9781

16 авг 2014, 21:04

Anonymous Перейти к последнему сообщению

В этой теме нет новых непрочитанных сообщений. Скачать торрент Проверен Ларри Янг, Брайан Александер | Химия любви. Научный взгляд на любовь, секс и влечение (2014) [FB2]

в форуме Популярная психология, Размер: 1.47 МБ, Здоровье: 100%

Anonymous

0
173|7

66
10

19 янв 2016, 21:02

Anonymous Перейти к последнему сообщению



Сейчас этот форум просматривают: нет зарегистрированных пользователей и гости: 1


Вы не можете начинать темы
Вы не можете отвечать на сообщения
Вы не можете редактировать свои сообщения
Вы не можете удалять свои сообщения
Вы не можете добавлять вложения

Перейти:  

!ВНИМАНИЕ!
 Ресурс не предоставляет электронные версии произведений, а занимается лишь коллекционированием и каталогизацией ссылок, присылаемых и публикуемых на форуме нашими читателями. Если вы являетесь правообладателем какого-либо представленного материала и не желаете чтобы ссылка на него находилась в нашем каталоге, свяжитесь с нами и мы незамедлительно удалим её. Файлы для обмена на трекере предоставлены пользователями сайта, и администрация не несёт ответственности за их содержание. Просьба не заливать файлы, защищенные авторскими правами, а также файлы нелегального содержания!