На всех торрентах на трекере установлена скидка на скачивание в размере 100 процентов(а).
 Возможность скачивания торрента НЕ зависит от ограничений при низком ратио, низком аплоаде, требуемом ратио или требуемом аплоаде.


Начать новую тему Ответить на тему
Статистика раздачи
Размер: 7.24 ГБ | Добавлен: 21 апр 2014, 06:40 | Скачали: 24
Сидеров: 3  [0 байт/сек]    Личеров: 0  [0 байт/сек]
Пред. тема | След. тема 

Автор
Сообщение

СообщениеДобавлено: 21 апр 2014, 06:40 

Вкратце:
Кинолента демонстрирует, какова на самом деле реальность в стране, которая является важным маршрутом в международной транспортировке наркотиков, а также одной из крупнейших потребителей наркотиков на планете. Опытный торговец наркотиками, ведет свою деятельность в городе Бразилиа, столице Бразилии. Полиция города прилагает немалые усилия, чтобы поймать его.


Название: Федерал
Оригинальное название: Federal
Год выхода: 2010
Жанр: боевик, криминал
Режиссер: Эрик Де Кастро

В ролях: Майкл Мэдсен, Карлос Альберто Риччелли, Селтон Меллу, Кристовам Нетту, Сезариу Аугусту, Эдуардо Душек, Каролина Гомес





Выпущено: Бразилия, Франция, Колумбия
Продолжительность: 01:31:25
Озвучивание: Любительское (одноголосое) [Barin101]


Формат: MKV
Качество: BDRip 720p [DON]
Видео: 9000 kb/s, 1280x720
Аудио: Russian: AC3, 192 kb/s (2 ch) / Portuguese: DTS, 1510 kb/s (6 ch)
Субтитры: Russian [Barin101], English
Дополнительно: Сохранены оригинальные чаптеры как на Blu-Ray

Скачать: Сэмпл

Релиз группы:



Общее
Federal.2010.Blu.Ray.720p.CINEMANIA.mkv
Формат : Matroska
Версия формата : Version 4 / Version 2
Размер файла : 7,24 Гбайт
Продолжительность : 1 ч. 31 м.
Общий поток : 11,3 Мбит/сек
Название фильма : Release Group CINEMANIA
Дата кодирования : UTC 2014-04-20 22:04:37
Программа кодирования : mkvmerge v6.9.1 ('Blue Panther') 64bit built on Apr 18 2014 18:23:38
Библиотека кодирования : libebml v1.3.0 + libmatroska v1.4.1

Видео
Идентификатор : 1
Формат : AVC
Формат/Информация : Advanced Video Codec
Профиль формата : High@L4.1
Параметр CABAC формата : Да
Параметр ReFrames формата : 4 кадра
Идентификатор кодека : V_MPEG4/ISO/AVC
Продолжительность : 1 ч. 31 м.
Битрейт : 9000 Кбит/сек
Ширина : 1280 пикселей
Высота : 720 пикселей
Соотношение сторон : 16:9
Режим частоты кадров : Постоянный
Частота кадров : 23,976 кадра/сек
Цветовое пространство : YUV
Субдискретизация насыщенности : 4:2:0
Битовая глубина : 8 бит
Тип развёртки : Прогрессивная
Бит/(Пиксели*Кадры) : 0.407
Размер потока : 5,60 Гбайт (77%)
Заголовок : Release Group CINEMANIA
Библиотека кодирования : x264 core 115 r1995 c1e60b9
Настройки программы : cabac=1 / ref=3 / deblock=1:-3:-3 / analyse=0x3:0x133 / me=umh / subme=10 / psy=1 / psy_rd=1.00:0.00 / mixed_ref=1 / me_range=32 / chroma_me=1 / trellis=2 / 8x8dct=1 / cqm=0 / deadzone=21,11 / fast_pskip=0 / chroma_qp_offset=-2 / threads=18 / sliced_threads=0 / nr=0 / decimate=0 / interlaced=0 / bluray_compat=0 / constrained_intra=0 / bframes=7 / b_pyramid=2 / b_adapt=2 / b_bias=0 / direct=3 / weightb=1 / open_gop=0 / weightp=2 / keyint=250 / keyint_min=23 / scenecut=40 / intra_refresh=0 / rc_lookahead=40 / rc=2pass / mbtree=0 / bitrate=9000 / ratetol=1.0 / qcomp=0.65 / qpmin=0 / qpmax=40 / qpstep=4 / cplxblur=20.0 / qblur=0.5 / vbv_maxrate=50000 / vbv_bufsize=50000 / nal_hrd=none / ip_ratio=1.25 / pb_ratio=1.25 / aq=1:0.65
Язык : English
Default : Да
Forced : Нет

Аудио #1
Идентификатор : 2
Формат : AC-3
Формат/Информация : Audio Coding 3
Расширение режима : CM (complete main)
Параметр Endianness формата : Big
Идентификатор кодека : A_AC3
Продолжительность : 1 ч. 31 м.
Вид битрейта : Постоянный
Битрейт : 192 Кбит/сек
Каналы : 2 канала
Расположение каналов : Front: L R
Частота : 44,1 КГц
Битовая глубина : 16 бит
Метод сжатия : С потерями
Размер потока : 126 Мбайт (2%)
Заголовок : Barin101
Язык : Russian
Default : Да
Forced : Да

Аудио #2
Идентификатор : 3
Формат : DTS
Формат/Информация : Digital Theater Systems
Режим : 16
Параметр Endianness формата : Big
Идентификатор кодека : A_DTS
Продолжительность : 1 ч. 31 м.
Вид битрейта : Постоянный
Битрейт : 1509 Кбит/сек
Каналы : 6 каналов
Расположение каналов : Front: L C R, Side: L R, LFE
Частота : 48,0 КГц
Битовая глубина : 24 бит
Метод сжатия : С потерями
Размер потока : 986 Мбайт (13%)
Язык : Portuguese
Default : Нет
Forced : Нет

Аудио #3
Идентификатор : 4
Формат : AC-3
Формат/Информация : Audio Coding 3
Расширение режима : CM (complete main)
Параметр Endianness формата : Big
Идентификатор кодека : A_AC3
Продолжительность : 1 ч. 31 м.
Вид битрейта : Постоянный
Битрейт : 640 Кбит/сек
Каналы : 6 каналов
Расположение каналов : Front: L C R, Side: L R, LFE
Частота : 48,0 КГц
Битовая глубина : 16 бит
Метод сжатия : С потерями
Размер потока : 418 Мбайт (6%)
Язык : Portuguese
Default : Нет
Forced : Нет

Текст #1
Идентификатор : 5
Формат : UTF-8
Идентификатор кодека : S_TEXT/UTF8
Идентификатор кодека/Информация : UTF-8 Plain Text
Заголовок : Barin101
Язык : Russian
Default : Нет
Forced : Нет

Текст #2
Идентификатор : 6
Формат : UTF-8
Идентификатор кодека : S_TEXT/UTF8
Идентификатор кодека/Информация : UTF-8 Plain Text
Язык : English
Default : Нет
Forced : Нет

Меню
00:00:00.000 : en:00:00:00.000
00:06:00.068 : en:00:06:00.068
00:14:40.213 : en:00:14:40.213
00:22:44.321 : en:00:22:44.321
00:32:08.468 : en:00:32:08.468
00:43:32.610 : en:00:43:32.610
00:53:53.439 : en:00:53:53.439
01:04:42.504 : en:01:04:42.504
01:14:18.245 : en:01:14:18.245
01:24:55.340 : en:01:24:55.340
загрузка...
Правила, инструкции, FAQ!!!
Торрент  Добавлен [21 апр 2014, 06:40] Скачать торрент
Скачать торрент
[ Размер 36.75 КБ / Просмотров 7 ]

Статус  
 
Размер  7.24 ГБ
Приватный: Нет (DHT включён)
.torrent скачан  24
Как залить торрент? | Как скачать Torrent? | Как смотреть и слушать онлайн?  


     Отправить личное сообщение
   
Страница 1 из 1
Показать сообщения за:  Поле сортировки  
Начать новую тему Ответить на тему

   Похожие торренты   Автор   Ответы   Просмотры   Последнее сообщение 
В этой теме нет новых непрочитанных сообщений. Скачать торрент Проверен (Hard Rock, Blues Rock) [CD] Federal Charm - Federal Charm - 2013, FLAC (image+.cue), lossless

в форуме Classic Rock & Hard Rock, Размер: 375.92 МБ, Здоровье: 0%

Anonymous

0
0|0

5
0

05 сен 2016, 18:56

Anonymous Перейти к последнему сообщению

В этой теме нет новых непрочитанных сообщений. Скачать торрент Проверен Федеральная защита / Federal Protection (2001) DVDRip | A

в форуме Боевики, Размер: 1.45 ГБ, Здоровье: 8%

Anonymous

0
3|35

59
4

07 сен 2014, 21:54

Anonymous Перейти к последнему сообщению

В этой теме нет новых непрочитанных сообщений. Скачать торрент Проверен Feuertanz Festival 2010 (Ignis Fatuu, Folkstone, Wutas, Fejd, Furunkulus, Feuerschwanz, Omnia, Subway to Sally, Eluveitie) [2010, Folk Metal, BDRip 720p]

в форуме Концерты (HD-Video), Размер: 5.42 ГБ, Здоровье: 100%

Anonymous

0
7|2

1
0

23 окт 2016, 16:06

Anonymous Перейти к последнему сообщению

В этой теме нет новых непрочитанных сообщений. Скачать торрент Двойной КОПец / Cop Out (2010) BDRip [720p]

в форуме 720p | 1080p, Размер: 4.32 ГБ, Здоровье: 0%

Anonymous

0
0|0

36
0

08 янв 2014, 13:43

Anonymous Перейти к последнему сообщению

В этой теме нет новых непрочитанных сообщений. Скачать торрент Проверен Бунраку / Bunraku (2010) BDRip 720p | P

в форуме 720p | 1080p, Размер: 4.55 ГБ, Здоровье: 100%

Гость

0
103|56

186
9

03 июл 2015, 18:39

Гость Перейти к последнему сообщению



Сейчас этот форум просматривают: нет зарегистрированных пользователей и гости: 2


Вы не можете начинать темы
Вы не можете отвечать на сообщения
Вы не можете редактировать свои сообщения
Вы не можете удалять свои сообщения
Вы не можете добавлять вложения

Перейти:  

!ВНИМАНИЕ!
 Ресурс не предоставляет электронные версии произведений, а занимается лишь коллекционированием и каталогизацией ссылок, присылаемых и публикуемых на форуме нашими читателями. Если вы являетесь правообладателем какого-либо представленного материала и не желаете чтобы ссылка на него находилась в нашем каталоге, свяжитесь с нами и мы незамедлительно удалим её. Файлы для обмена на трекере предоставлены пользователями сайта, и администрация не несёт ответственности за их содержание. Просьба не заливать файлы, защищенные авторскими правами, а также файлы нелегального содержания!