На всех торрентах на трекере установлена скидка на скачивание в размере 100 процентов(а).
 Возможность скачивания торрента НЕ зависит от ограничений при низком ратио, низком аплоаде, требуемом ратио или требуемом аплоаде.


Начать новую тему Ответить на тему
Статистика раздачи
Размер: 14.2 ГБ | Добавлен: 21 апр 2014, 06:37 | Скачали: 0
Сидеров: 0  [0 байт/сек]    Личеров: 0  [0 байт/сек]
Пред. тема | След. тема 

Автор
Сообщение

СообщениеДобавлено: 21 апр 2014, 06:37 

Вкратце:
Маджид является талантливым кикбоксером. Его боевая доблесть приносит ему известность как на ринге, так и вне его. Но постепенно граница между кикбоксингом и преступной деятельностью начинает размываться, и Маджид перестает понимать, чего же он хочет на самом деле…



Название: Волк
Оригинальное название: Wolf
Год выхода: 2013
Жанр: триллер, драма, криминал
Режиссер: Джим Тайхутту

В ролях: Стеф Кёйперс, Слиман Дази, Якоб Дервиг, Марван Кензари, Бо Маертен, Бьорн Ниссен




Выпущено: Нидерланды
Продолжительность: 02:02:38
Озвучивание: Любительское (одноголосое) [Yahn X.]


Формат: MKV
Качество: BDRip 1080p [DON]
Видео: 14500 kb/s, 1920x1036
Аудио: Russian: AC3, 192 kb/s (2 ch) / Dutch: DTS, 1510 kb/s (6 ch)
Субтитры: English
Дополнительно: Сохранены оригинальные чаптеры как на Blu-Ray

Скачать: Сэмпл

Релиз группы:



Общее
Wolf.2013.Blu.Ray.1080p.CINEMANIA.mkv
Формат : Matroska
Версия формата : Version 4 / Version 2
Размер файла : 14,2 Гбайт
Продолжительность : 2 ч. 2 м.
Общий поток : 16,6 Мбит/сек
Название фильма : Release Group CINEMANIA
Дата кодирования : UTC 2014-04-20 22:56:46
Программа кодирования : mkvmerge v6.9.1 ('Blue Panther') 64bit built on Apr 18 2014 18:23:38
Библиотека кодирования : libebml v1.3.0 + libmatroska v1.4.1

Видео
Идентификатор : 1
Формат : AVC
Формат/Информация : Advanced Video Codec
Профиль формата : High@L4.1
Параметр CABAC формата : Да
Параметр ReFrames формата : 9 кадров
Идентификатор кодека : V_MPEG4/ISO/AVC
Продолжительность : 2 ч. 2 м.
Битрейт : 14,5 Мбит/сек
Ширина : 1920 пикселей
Высота : 1036 пикселей
Соотношение сторон : 1,85:1
Режим частоты кадров : Постоянный
Частота кадров : 24,000 кадра/сек
Цветовое пространство : YUV
Субдискретизация насыщенности : 4:2:0
Битовая глубина : 8 бит
Тип развёртки : Прогрессивная
Бит/(Пиксели*Кадры) : 0.305
Размер потока : 12,5 Гбайт (88%)
Заголовок : Release Group CINEMANIA
Библиотека кодирования : x264 core 142 r2409+42 04be48a tMod [8-bit@all X86_64]
Настройки программы : cabac=1 / ref=9 / deblock=1:-3:-3 / analyse=0x3:0x133 / me=umh / subme=11 / psy=1 / fade_compensate=0.00 / psy_rd=0.90:0.00 / mixed_ref=1 / me_range=32 / chroma_me=1 / trellis=2 / 8x8dct=1 / cqm=0 / deadzone=21,11 / fast_pskip=0 / chroma_qp_offset=-2 / threads=6 / lookahead_threads=1 / sliced_threads=0 / nr=0 / decimate=0 / interlaced=0 / bluray_compat=0 / constrained_intra=0 / fgo=0 / bframes=9 / b_pyramid=2 / b_adapt=2 / b_bias=0 / direct=3 / weightb=1 / open_gop=0 / weightp=2 / keyint=250 / keyint_min=24 / scenecut=40 / intra_refresh=0 / rc_lookahead=60 / rc=crf / mbtree=0 / crf=18.0000 / qcomp=0.70 / qpmin=0:0:0 / qpmax=69:69:69 / qpstep=4 / vbv_maxrate=62500 / vbv_bufsize=78125 / crf_max=0.0 / nal_hrd=none / filler=0 / ip_ratio=1.40 / pb_ratio=1.10 / aq=3:0.80 / aq-sensitivity=10.00 / aq-factor=1.00:1.00:1.00 / aq2=0 / aq3=0 / zones=171637,176610,ipratio=1.4,pbratio=1.4,crf=23
Язык : Dutch
Default : Да
Forced : Нет
Коэффициенты матрицы : BT.709

Аудио #1
Идентификатор : 2
Формат : AC-3
Формат/Информация : Audio Coding 3
Расширение режима : CM (complete main)
Параметр Endianness формата : Big
Идентификатор кодека : A_AC3
Продолжительность : 2 ч. 2 м.
Вид битрейта : Постоянный
Битрейт : 192 Кбит/сек
Каналы : 2 канала
Расположение каналов : Front: L R
Частота : 48,0 КГц
Битовая глубина : 16 бит
Метод сжатия : С потерями
Размер потока : 168 Мбайт (1%)
Заголовок : Yahn X.
Язык : Russian
Default : Да
Forced : Да

Аудио #2
Идентификатор : 3
Формат : DTS
Формат/Информация : Digital Theater Systems
Режим : 16
Параметр Endianness формата : Big
Идентификатор кодека : A_DTS
Продолжительность : 2 ч. 2 м.
Вид битрейта : Постоянный
Битрейт : 1509 Кбит/сек
Каналы : 6 каналов
Расположение каналов : Front: L C R, Side: L R, LFE
Частота : 48,0 КГц
Битовая глубина : 24 бит
Метод сжатия : С потерями
Размер потока : 1,29 Гбайт (9%)
Язык : Dutch
Default : Нет
Forced : Нет

Текст
Идентификатор : 4
Формат : UTF-8
Идентификатор кодека : S_TEXT/UTF8
Идентификатор кодека/Информация : UTF-8 Plain Text
Язык : English
Default : Нет
Forced : Нет

Меню
00:00:00.000 : en:Chapter 1
00:10:26.250 : en:Chapter 2
00:23:49.917 : en:Chapter 3
00:31:07.375 : en:Chapter 4
00:41:44.708 : en:Chapter 5
00:54:39.875 : en:Chapter 6
01:01:34.750 : en:Chapter 7
01:12:15.042 : en:Chapter 8
01:24:47.458 : en:Chapter 9
01:33:18.250 : en:Chapter 10
01:42:19.167 : en:Chapter 11
01:54:58.542 : en:Chapter 12
01:59:15.583 : en:Chapter 13
загрузка...
Правила, инструкции, FAQ!!!
Торрент  Добавлен [21 апр 2014, 06:37] Скачать торрент
Скачать торрент
[ Размер 71.55 КБ / Просмотров 8 ]

Статус  
 
Размер  14.2 ГБ
Приватный: Нет (DHT включён)
.torrent скачан  0
Как залить торрент? | Как скачать Torrent? | Как смотреть и слушать онлайн?  


     Отправить личное сообщение
   
Страница 1 из 1
Показать сообщения за:  Поле сортировки  
Начать новую тему Ответить на тему

   Похожие торренты   Автор   Ответы   Просмотры   Последнее сообщение 
В этой теме нет новых непрочитанных сообщений. Скачать торрент Волк с Уолл-стрит / The Wolf of Wall Street (2013) BDRip 1080p | P2

в форуме 720p | 1080p, Размер: 14.65 ГБ, Здоровье: 0%

Anonymous

0
0|0

63
0

15 мар 2014, 08:26

Anonymous Перейти к последнему сообщению

В этой теме нет новых непрочитанных сообщений. Скачать торрент Проверен Одинокий волк МакКуэйд / Lone Wolf McQuade (1983) BDRip 1080p | P, A

в форуме 720p | 1080p, Размер: 12.06 ГБ, Здоровье: 100%

Гость

0
4|0

87
2

10 апр 2016, 23:23

Гость Перейти к последнему сообщению

В этой теме нет новых непрочитанных сообщений. Скачать торрент Волк / Wolf (2013) BDRip 720p | L1

в форуме 720p | 1080p, Размер: 7.1 ГБ, Здоровье: 0%

Anonymous

0
0|0

30
0

21 апр 2014, 06:18

Anonymous Перейти к последнему сообщению

В этой теме нет новых непрочитанных сообщений. Волк с Уолл-стрит / The Wolf of Wall Street (2013) BDRip 720p | Звук c TS | P2

в форуме Новинки кино, Размер: 8.13 ГБ, Здоровье: 0%

Anonymous

0
0|0

96
0

13 мар 2014, 23:54

Anonymous Перейти к последнему сообщению

В этой теме нет новых непрочитанных сообщений. Скачать торрент Проверен Одинокий волк МакКуэйд / Lone Wolf McQuade (1983) BDRip

в форуме Боевики, Размер: 1.45 ГБ, Здоровье: 100%

Гость

0
2|0

225
0

10 апр 2016, 23:26

Гость Перейти к последнему сообщению



Сейчас этот форум просматривают: нет зарегистрированных пользователей и гости: 1


Вы не можете начинать темы
Вы не можете отвечать на сообщения
Вы не можете редактировать свои сообщения
Вы не можете удалять свои сообщения
Вы не можете добавлять вложения

Перейти:  

!ВНИМАНИЕ!
 Ресурс не предоставляет электронные версии произведений, а занимается лишь коллекционированием и каталогизацией ссылок, присылаемых и публикуемых на форуме нашими читателями. Если вы являетесь правообладателем какого-либо представленного материала и не желаете чтобы ссылка на него находилась в нашем каталоге, свяжитесь с нами и мы незамедлительно удалим её. Файлы для обмена на трекере предоставлены пользователями сайта, и администрация не несёт ответственности за их содержание. Просьба не заливать файлы, защищенные авторскими правами, а также файлы нелегального содержания!