На всех торрентах на трекере установлена скидка на скачивание в размере 100 процентов(а).
 Возможность скачивания торрента НЕ зависит от ограничений при низком ратио, низком аплоаде, требуемом ратио или требуемом аплоаде.


Начать новую тему Ответить на тему
Статистика раздачи
Размер: 15.77 ГБ | Добавлен: 20 апр 2014, 22:00 | Скачали: 0
Сидеров: 8  [0 байт/сек]    Личеров: 1  [0 байт/сек]
Пред. тема | След. тема 

Автор
Сообщение

СообщениеДобавлено: 20 апр 2014, 22:00 

Фирма / The Firm (1993) BDRip

Год выпуска: 1993
Жанр: Триллер, Драма, Детектив
Производство: США / Paramount Pictures

Описание фильма:
Том Круз играет выпускника юридического факультета университета в Гарварде. Честолюбивого и амбициозного, женатого на богатой красотке, которого приглашают работать на отличных условиях в небольшую юридическую фирму.

Молодой фирмач мечтает о высотах карьеры, однако вскоре обнаруживает, что его фирма обслуживает влиятельные мафиозные кланы Чикаго. Отказаться от сотрудничества с ними — значит подписать себе смертельный приговор. С другой стороны, за ним начинают следить сотрудники ФБР.

Режиссер: Сидни Поллак
Актеры: Том Круз, Джинн Трипплхорн, Джин Хэкмен, Хэл Холбрук, Терри Кинни, Вилфорд Бримли, Эд Харрис, Холли Хантер, Карина Ломбард

Продолжительность: 02:34:34
Качество видео: BDRip
Перевод: Многоголосый закадровый, Одноголосый закадровый
Язык субтитров: Английский
Вид субтитров: Вшитые отключаемые



Видеокодек: MPEG-4 AVC/H.264
Битрейт видео: ~10900 kbps
Размер кадра: 1920 x 1080
Аудио 1: Русский, AC3 5.1, 640 kbps, 48 kHz (MVO, FDV)
Аудио 2: Русский, AC3 5.1, 448 kbps, 48 kHz (MVO, НТВ+)
Аудио 3: Русский, AC3 2.0, 192 kbps, 48 kHz (MVO, СТС)
Аудио 4: Русский, AC3 5.1, 640 kbps, 48 kHz (AVO, А.Гаврилов)
Аудио 5: Русский, AC3 5.1, 640 kbps, 48 kHz (AVO, Ю.Живов)
Аудио 6: Русский, AC3 2.0, 192 kbps, 48 kHz (AVO, Л.Володарский)
Аудио 7: Английский, AC3 5.1, 640kbps, 48 kHz (Оригинал)
Сэмпл: Ссылка
Оскар, 1994 год
Номинации (2):
Лучшая женская роль второго плана (Холли Хантер)
Лучший оригинальный саундтрек

Премия канала «MTV», 1994 год
Номинации (2):
Лучшая мужская роль (Том Круз)
Самый желанный мужчина (Том Круз)

Британская академия, 1994 год
Номинации (1):
Лучшая женская роль второго плана (Холли Хантер)
Криминальная драма

Известный американский режиссёр Сидни Поллак ещё в середине 70-х годов поставил политический триллер «Три дня Кондора», в котором главный герой пытался выяснить суть деятельности некой фирмы на службе у ЦРУ. А в картине «Фирма», созданной по бестселлеру Джона Гришэма, постановщик старается включить в 154 минуты экранного действия чуть ли не все сюжетные линии романа, почему-то изменив его финал. Наиболее привлекательной и захватывающей представляется детективная часть истории, которая затрагивает тему махинаций и убийств в одной из внешне благопристойных фирм, не брезгующей ничем, вплоть до убийства неугодных сотрудников или же тех, кто начинает (подобно молодому адвокату Мичу МакДиру) что-то подозревать. А рассказ о семейных взаимоотношениях Мича с его женой Эбби почему-то раздражает из-за надуманной нервозности или, напротив, приторной благостности с ежесекундными признаниями обоих в любви.

Видимо, по причине такой же безмятежности и слащавости кажется непереносим и финал повествования, когда юный выпускник юридического факультета престижного Гарвардского университета выводит на чистую воду коррумпированных бизнесменов, но всё-таки остаётся внутри этой прогнившей системы и обретает почти утраченное счастье со своей аффективно ведущей себя женой. Голливудский, явно приклеенный хэппи-энд просто не может не завершить эту современную сказку о борьбе Давида с Голиафом. Но особенно сомнителен типичный американизм, который призван возвеличить образ «хорошего американского парня» (как и в ленте «Несколько хороших парней», Том Круз вновь воплощает идеального «героя нашего времени» в заокеанском понимании).

Успех такого фильма был гарантирован — $158,35 млн. кассовых сборов в США (можно сказать, что более миллиона долларов пришлось на каждую минуту экранного времени!), и до недавних пор «Фирма» находилась среди ста пятидесяти самых популярных кинопроизведений за всю историю американского проката. Но Сидни Поллак всё равно не смог побить свой личный рекорд, достигнутый десятилетием ранее благодаря комедии «Тутси», где идея о том, что в Америке даже безработный актёр может однажды стать звездой, пусть и в женском обличье, всё же была преподана в эксцентрически-сатирической упаковке.
Общее
Уникальный идентификатор : 241152472917570822297438855222026124920 (0xB56C46E15009A6549A44276F5B753E78)
Полное имя : D:\Films\The.Firm.1993.BDRip.1080p.mkv
Формат : Matroska
Версия формата : Version 2
Размер файла : 15,8 Гбайт
Продолжительность : 2 ч. 34 м.
Общий поток : 14,6 Мбит/сек
Дата кодирования : UTC 2014-04-20 08:29:11
Программа кодирования : mkvmerge v5.2.0 ('I can't explain') built on Dec 18 2011 18:12:03
Библиотека кодирования : libebml v1.2.3 + libmatroska v1.3.0

Видео
Идентификатор : 1
Формат : AVC
Формат/Информация : Advanced Video Codec
Профиль формата :
Параметр CABAC формата : Да
Параметр ReFrames формата : 4 кадра
Режим смешивания : Header stripping
Идентификатор кодека : V_MPEG4/ISO/AVC
Продолжительность : 2 ч. 34 м.
Битрейт : 10,9 Мбит/сек
Ширина : 1920 пикселей
Высота : 1080 пикселей
Соотношение сторон : 16:9
Режим частоты кадров : Постоянный
Частота кадров : 23,976 кадра/сек
Цветовое пространство : YUV
Субдискретизация насыщенности : 4:2:0
Битовая глубина : 8 бит
Тип развёртки : Прогрессивная
Бит/(Пиксели*Кадры) : 0.220
Размер потока : 11,8 Гбайт (75%)
Библиотека кодирования : x264 core 140 r2377 1ca7bb9
Настройки программы : cabac=1 / ref=4 / deblock=1:-3:-3 / analyse=0x3:0x133 / me=umh / subme=11 / psy=1 / psy_rd=1.00:0.10 / mixed_ref=1 / me_range=32 / chroma_me=1 / trellis=2 / 8x8dct=1 / cqm=0 / deadzone=21,11 / fast_pskip=0 / chroma_qp_offset=-3 / threads=6 / lookahead_threads=1 / sliced_threads=0 / nr=0 / decimate=0 / interlaced=0 / bluray_compat=0 / constrained_intra=0 / bframes=8 / b_pyramid=2 / b_adapt=2 / b_bias=0 / direct=3 / weightb=1 / open_gop=0 / weightp=2 / keyint=240 / keyint_min=23 / scenecut=40 / intra_refresh=0 / rc=crf / mbtree=0 / crf=20.0 / qcomp=0.60 / qpmin=0 / qpmax=69 / qpstep=4 / ip_ratio=1.40 / pb_ratio=1.30 / aq=1:0.90
Язык : English
Default : Да
Forced : Нет

Аудио #1
Идентификатор : 2
Формат : AC-3
Формат/Информация : Audio Coding 3
Расширение режима : CM (complete main)
Параметр Endianness формата : Big
Режим смешивания : Header stripping
Идентификатор кодека : A_AC3
Продолжительность : 2 ч. 34 м.
Вид битрейта : Постоянный
Битрейт : 640 Кбит/сек
Каналы : 6 каналов
Расположение каналов : Front: L C R, Side: L R, LFE
Частота : 48,0 КГц
Битовая глубина : 16 бит
Метод сжатия : С потерями
Размер потока : 708 Мбайт (4%)
Заголовок : MVO FDV
Язык : Russian
Default : Да
Forced : Нет

Аудио #2
Идентификатор : 3
Формат : AC-3
Формат/Информация : Audio Coding 3
Расширение режима : CM (complete main)
Параметр Endianness формата : Big
Режим смешивания : Header stripping
Идентификатор кодека : A_AC3
Продолжительность : 2 ч. 34 м.
Вид битрейта : Постоянный
Битрейт : 448 Кбит/сек
Каналы : 6 каналов
Расположение каналов : Front: L C R, Side: L R, LFE
Частота : 48,0 КГц
Битовая глубина : 16 бит
Метод сжатия : С потерями
Размер потока : 495 Мбайт (3%)
Заголовок : MVO НТВ+
Язык : Russian
Default : Нет
Forced : Нет

Аудио #3
Идентификатор : 4
Формат : AC-3
Формат/Информация : Audio Coding 3
Расширение режима : CM (complete main)
Параметр Endianness формата : Big
Режим смешивания : Header stripping
Идентификатор кодека : A_AC3
Продолжительность : 2 ч. 34 м.
Вид битрейта : Постоянный
Битрейт : 192 Кбит/сек
Каналы : 2 канала
Расположение каналов : Front: L R
Частота : 48,0 КГц
Битовая глубина : 16 бит
Метод сжатия : С потерями
Размер потока : 212 Мбайт (1%)
Заголовок : MVO СТС
Язык : Russian
Default : Нет
Forced : Нет

Аудио #4
Идентификатор : 5
Формат : AC-3
Формат/Информация : Audio Coding 3
Расширение режима : CM (complete main)
Параметр Endianness формата : Big
Режим смешивания : Header stripping
Идентификатор кодека : A_AC3
Продолжительность : 2 ч. 34 м.
Вид битрейта : Постоянный
Битрейт : 640 Кбит/сек
Каналы : 6 каналов
Расположение каналов : Front: L C R, Side: L R, LFE
Частота : 48,0 КГц
Битовая глубина : 16 бит
Метод сжатия : С потерями
Размер потока : 708 Мбайт (4%)
Заголовок : AVO А.Гаврилов
Язык : Russian
Default : Нет
Forced : Нет

Аудио #5
Идентификатор : 6
Формат : AC-3
Формат/Информация : Audio Coding 3
Расширение режима : CM (complete main)
Параметр Endianness формата : Big
Режим смешивания : Header stripping
Идентификатор кодека : A_AC3
Продолжительность : 2 ч. 34 м.
Вид битрейта : Постоянный
Битрейт : 640 Кбит/сек
Каналы : 6 каналов
Расположение каналов : Front: L C R, Side: L R, LFE
Частота : 48,0 КГц
Битовая глубина : 16 бит
Метод сжатия : С потерями
Размер потока : 708 Мбайт (4%)
Заголовок : AVO Ю.Живов
Язык : Russian
Default : Нет
Forced : Нет

Аудио #6
Идентификатор : 7
Формат : AC-3
Формат/Информация : Audio Coding 3
Расширение режима : CM (complete main)
Параметр Endianness формата : Big
Режим смешивания : Header stripping
Идентификатор кодека : A_AC3
Продолжительность : 2 ч. 34 м.
Вид битрейта : Постоянный
Битрейт : 192 Кбит/сек
Каналы : 2 канала
Расположение каналов : Front: L R
Частота : 48,0 КГц
Битовая глубина : 16 бит
Метод сжатия : С потерями
Размер потока : 212 Мбайт (1%)
Заголовок : AVO Л.Володарский
Язык : Russian
Default : Нет
Forced : Нет

Аудио #7
Идентификатор : 8
Формат : AC-3
Формат/Информация : Audio Coding 3
Расширение режима : CM (complete main)
Параметр Endianness формата : Big
Режим смешивания : Header stripping
Идентификатор кодека : A_AC3
Продолжительность : 2 ч. 34 м.
Вид битрейта : Постоянный
Битрейт : 640 Кбит/сек
Каналы : 6 каналов
Расположение каналов : Front: L C R, Side: L R, LFE
Частота : 48,0 КГц
Битовая глубина : 16 бит
Метод сжатия : С потерями
Размер потока : 708 Мбайт (4%)
Заголовок : Original
Язык : English
Default : Нет
Forced : Нет

Текст #1
Идентификатор : 9
Формат : UTF-8
Идентификатор кодека : S_TEXT/UTF8
Идентификатор кодека/Информация : UTF-8 Plain Text
Язык : English
Default : Нет
Forced : Нет

Текст #2
Идентификатор : 10
Формат : UTF-8
Идентификатор кодека : S_TEXT/UTF8
Идентификатор кодека/Информация : UTF-8 Plain Text
Заголовок : SDH
Язык : English
Default : Нет
Forced : Нет

Меню
00:00:00.000 : en:00:00:00.000
00:02:34.571 : en:00:02:34.571
00:09:40.246 : en:00:09:40.246
00:13:27.598 : en:00:13:27.598
00:15:15.039 : en:00:15:15.039
00:22:55.123 : en:00:22:55.123
00:26:16.825 : en:00:26:16.825
00:32:21.230 : en:00:32:21.230
00:46:07.723 : en:00:46:07.723
00:49:55.534 : en:00:49:55.534
00:57:10.593 : en:00:57:10.593
01:06:49.964 : en:01:06:49.964
01:15:12.549 : en:01:15:12.549
01:25:48.601 : en:01:25:48.601
01:38:33.616 : en:01:38:33.616
02:01:52.430 : en:02:01:52.430
02:17:28.073 : en:02:17:28.073
02:24:10.224 : en:02:24:10.224
02:30:53.669 : en:02:30:53.669

Скриншоты:



загрузка...
Правила, инструкции, FAQ!!!
Торрент  Добавлен [20 апр 2014, 22:00] Скачать торрент
Скачать торрент
[ Размер 79.49 КБ / Просмотров 7 ]

Статус  
 
Размер  15.77 ГБ
Приватный: Нет (DHT включён)
.torrent скачан  0
Как залить торрент? | Как скачать Torrent? | Как смотреть и слушать онлайн?  


     Отправить личное сообщение
   
Страница 1 из 1
Показать сообщения за:  Поле сортировки  
Начать новую тему Ответить на тему

   Похожие торренты   Автор   Ответы   Просмотры   Последнее сообщение 
В этой теме нет новых непрочитанных сообщений. Скачать торрент Фирма / The Firm (1993) BDRip

в форуме Триллеры, Размер: 2.18 ГБ, Здоровье: 0%

Anonymous

0
0|0

31
0

07 янв 2014, 20:52

Anonymous Перейти к последнему сообщению

В этой теме нет новых непрочитанных сообщений. Скачать торрент Фирма / The Firm (1993) BDRip 720p | Лицензия

в форуме 720p | 1080p, Размер: 6.69 ГБ, Здоровье: 0%

Anonymous

0
0|0

18
0

07 янв 2014, 20:48

Anonymous Перейти к последнему сообщению

В этой теме нет новых непрочитанных сообщений. Скачать торрент Проверен (Classic Rock) [LP][24/192] The Firm - The Firm (Jimmy Page and Paul Rogers) - 1985, FLAC (image+.cue)

в форуме Зарубежный рок (оцифровки), Размер: 1.47 ГБ, Здоровье: 100%

Anonymous

0
1|0

1
0

24 авг 2016, 14:42

Anonymous Перейти к последнему сообщению

В этой теме нет новых непрочитанных сообщений. Скачать торрент Проверен (Rock) [LP] [32/192] The Firm - The Firm (Japan) - 1985, WavPack (image+.cue)

в форуме Зарубежный рок (оцифровки), Размер: 2.12 ГБ, Здоровье: 100%

Anonymous

0
2|1

1
0

24 авг 2016, 16:28

Anonymous Перейти к последнему сообщению

В этой теме нет новых непрочитанных сообщений. Скачать торрент Проверен (Rock) [LP][24/96] The Firm - The Firm - 1985, APE (image+.cue), lossless

в форуме Зарубежный рок (оцифровки), Размер: 807.39 МБ, Здоровье: 0%

Anonymous

0
0|0

1
0

24 авг 2016, 16:38

Anonymous Перейти к последнему сообщению



Сейчас этот форум просматривают: нет зарегистрированных пользователей и гости: 1


Вы не можете начинать темы
Вы не можете отвечать на сообщения
Вы не можете редактировать свои сообщения
Вы не можете удалять свои сообщения
Вы не можете добавлять вложения

Перейти:  

!ВНИМАНИЕ!
 Ресурс не предоставляет электронные версии произведений, а занимается лишь коллекционированием и каталогизацией ссылок, присылаемых и публикуемых на форуме нашими читателями. Если вы являетесь правообладателем какого-либо представленного материала и не желаете чтобы ссылка на него находилась в нашем каталоге, свяжитесь с нами и мы незамедлительно удалим её. Файлы для обмена на трекере предоставлены пользователями сайта, и администрация не несёт ответственности за их содержание. Просьба не заливать файлы, защищенные авторскими правами, а также файлы нелегального содержания!