На всех торрентах на трекере установлена скидка на скачивание в размере 100 процентов(а).
 Возможность скачивания торрента НЕ зависит от ограничений при низком ратио, низком аплоаде, требуемом ратио или требуемом аплоаде.


Начать новую тему Ответить на тему
Статистика раздачи
Размер: 5.77 ГБ | Добавлен: 20 апр 2014, 20:46 | Скачали: 498
Сидеров: 25  [0 байт/сек]    Личеров: 0  [0 байт/сек]
Пред. тема | След. тема 

Автор
Сообщение

СообщениеДобавлено: 20 апр 2014, 20:46 

Вкратце:
В жизни главного героя Скитера Бронсона никогда не случалось ничего удивительного. Но однажды сестра попросила его присмотреть за двумя очаровательными и неугомонными племянниками и одной симпатичной морской свинкой по имени Плаксик.
Все трое привыкли засыпать под мамины сказки, и Скитеру пришлось каждый вечер придумывать невероятные истории для своей веселой семейки. И вдруг происходит чудо: события сказки, рассказанной детям на ночь, начали сбываться на следующий день в жизни самого Скитера!


Название: Сказки на ночь
Оригинальное название: Bedtime Stories
Год выхода: 2008
Жанр: фэнтези, мелодрама, комедия, семейный
Режиссер: Адам Шенкман

В ролях: Адам Сэндлер, Кери Рассел, Гай Пирс, Расселл Брэнд, Ричард Гриффитс, Тереза Палмер, Люси Лоулесс, Кортни Кокс, Джонатан Морган Хейт, Лаура Энн Кеслинг





Выпущено: США
Продолжительность: 01:39:13
Перевод: Дублированный + Оригинал


Кодек: x264
Качество: BDRip 1080p
Видео: 1920x816, 7042 Kbps, 23.976 fps
Аудио #1: AC-3, 6 ch, 640 kbps (Rus)
Аудио #2: AC-3, 6 ch, 640 kbps (Eng)
Субтитры: русские (полные, форсированные), английские

Общее
Уникальный идентификатор : 189238433951288439667811494922098263170 (0x8E5DFF24F36270DAB7286FA4269F4482)
Полное имя : Сказки на ночь.2008.BDRip.1080p.Rus.Eng.mkv
Формат : Matroska
Версия формата : Version 2
Размер файла : 5,77 Гбайт
Продолжительность : 1 ч. 39 м.
Общий поток : 8320 Кбит/сек
Название фильма : Сказки на ночь.2008
Дата кодирования : UTC 2014-04-20 13:57:49
Программа кодирования : mkvmerge v5.8.0 ('No Sleep / Pillow') built on Sep 2 2012 15:37:04
Библиотека кодирования : libebml v1.2.3 + libmatroska v1.3.0
Attachment : Yes

Видео
Идентификатор : 1
Формат : AVC
Формат/Информация : Advanced Video Codec
Профиль формата : High@L4.1
Параметр CABAC формата : Да
Параметр ReFrames формата : 5 кадров
Идентификатор кодека : V_MPEG4/ISO/AVC
Продолжительность : 1 ч. 39 м.
Битрейт : 7042 Кбит/сек
Ширина : 1920 пикселей
Высота : 816 пикселей
Соотношение сторон : 2,35:1
Режим частоты кадров : Постоянный
Частота кадров : 23,976 кадра/сек
Цветовое пространство : YUV
Субдискретизация насыщенности : 4:2:0
Битовая глубина : 8 бит
Тип развёртки : Прогрессивная
Бит/(Пиксели*Кадры) : 0.187
Размер потока : 4,77 Гбайт (83%)
Заголовок : Rip by Boriy
Библиотека кодирования : x264 core 142 r2409 d6b4e63
Настройки программы : cabac=1 / ref=5 / deblock=1:-3:-3 / analyse=0x3:0x113 / me=umh / subme=11 / psy=1 / psy_rd=1.00:0.00 / mixed_ref=1 / me_range=32 / chroma_me=1 / trellis=2 / 8x8dct=1 / cqm=0 / deadzone=21,11 / fast_pskip=0 / chroma_qp_offset=-2 / threads=12 / lookahead_threads=1 / sliced_threads=0 / nr=0 / decimate=0 / interlaced=0 / bluray_compat=0 / constrained_intra=0 / bframes=6 / b_pyramid=2 / b_adapt=2 / b_bias=0 / direct=3 / weightb=1 / open_gop=0 / weightp=2 / keyint=240 / keyint_min=23 / scenecut=40 / intra_refresh=0 / rc=2pass / mbtree=0 / bitrate=7042 / ratetol=1.0 / qcomp=0.60 / qpmin=0 / qpmax=69 / qpstep=4 / cplxblur=20.0 / qblur=0.5 / ip_ratio=1.40 / pb_ratio=1.30 / aq=1:0.80
Язык : English
Default : Да
Forced : Нет

Аудио #1
Идентификатор : 2
Формат : AC-3
Формат/Информация : Audio Coding 3
Расширение режима : CM (complete main)
Параметр Endianness формата : Big
Идентификатор кодека : A_AC3
Продолжительность : 1 ч. 39 м.
Вид битрейта : Постоянный
Битрейт : 640 Кбит/сек
Каналы : 6 каналов
Расположение каналов : Front: L C R, Side: L R, LFE
Частота : 48,0 КГц
Битовая глубина : 16 бит
Метод сжатия : С потерями
Размер потока : 454 Мбайт (8%)
Заголовок : Дубляж
Язык : Russian
Default : Да
Forced : Нет

Аудио #2
Идентификатор : 3
Формат : AC-3
Формат/Информация : Audio Coding 3
Расширение режима : CM (complete main)
Параметр Endianness формата : Big
Идентификатор кодека : A_AC3
Продолжительность : 1 ч. 39 м.
Вид битрейта : Постоянный
Битрейт : 640 Кбит/сек
Каналы : 6 каналов
Расположение каналов : Front: L C R, Side: L R, LFE
Частота : 48,0 КГц
Битовая глубина : 16 бит
Метод сжатия : С потерями
Размер потока : 454 Мбайт (8%)
Заголовок : Оригинал
Язык : English
Default : Нет
Forced : Нет

Текст #1
Идентификатор : 4
Формат : UTF-8
Идентификатор кодека : S_TEXT/UTF8
Идентификатор кодека/Информация : UTF-8 Plain Text
Заголовок : Forced
Язык : Russian
Default : Да
Forced : Да

Текст #2
Идентификатор : 5
Формат : UTF-8
Идентификатор кодека : S_TEXT/UTF8
Идентификатор кодека/Информация : UTF-8 Plain Text
Заголовок : Full
Язык : Russian
Default : Нет
Forced : Нет

Текст #3
Идентификатор : 6
Формат : UTF-8
Идентификатор кодека : S_TEXT/UTF8
Идентификатор кодека/Информация : UTF-8 Plain Text
Заголовок : Full
Язык : English
Default : Нет
Forced : Нет

Меню
00:00:00.000 : :1, Opening Church
00:05:28.703 : :2, The Sunny Vista Mega Nottingham
00:09:19.725 : :3, Bobbi's Birthday Party
00:14:44.758 : :4, Uncle Skeeter Babysits
00:19:02.432 : :5, Sir Fixalot
00:24:25.338 : :6, Skeeter Gets a Shot
00:30:07.263 : :7, Raining Gumballs
00:35:06.979 : :8, Wild West Adventure
00:40:27.800 : :9, Paparazzi Princess in Distress
00:45:15.462 : :10, Rooftop Campout
00:52:11.920 : :11, Legend of Skeetacus
00:56:57.288 : :12, Day at the Beach
01:03:36.020 : :13, Space Odyssey
01:08:50.459 : :14, Fire Prevention
01:14:21.290 : :15, Skeeter Hotel Theme
01:19:25.802 : :16, "the Sad Part"
01:23:05.146 : :17, Demolition!
01:26:24.304 : :18, Happy Ending
01:30:36.597 : :19, Marty's Motel
01:32:34.298 : :20, Closing Credits
x264 [info]: frame I:1734 Avg QP:18.16 size:219373
x264 [info]: frame P:34785 Avg QP:20.82 size: 67279
x264 [info]: frame B:106234 Avg QP:22.76 size: 23692
загрузка...
Правила, инструкции, FAQ!!!
Торрент  Добавлен [20 апр 2014, 20:46] Скачать торрент
Скачать торрент
[ Размер 15.06 КБ / Просмотров 10 ]

Статус  
 
Размер  5.77 ГБ
Приватный: Нет (DHT включён)
.torrent скачан  498
Как залить торрент? | Как скачать Torrent? | Как смотреть и слушать онлайн?  


     Отправить личное сообщение
   
Страница 1 из 1
Показать сообщения за:  Поле сортировки  
Начать новую тему Ответить на тему

   Похожие торренты   Автор   Ответы   Просмотры   Последнее сообщение 
В этой теме нет новых непрочитанных сообщений. Скачать торрент Сказки на ночь / Bedtime stories (Адам Шенкман / Adam Shankman) [2008, США, комедия, фэнтази, семейный, BDRip-AVC] Dub

в форуме Комедии, Размер: 2.91 ГБ, Здоровье: 0%

Anonymous

0
0|0

30
0

02 апр 2014, 12:06

Anonymous Перейти к последнему сообщению

В этой теме нет новых непрочитанных сообщений. Скачать торрент Сказки на ночь / Bedtime Stories (Адам Шенкман / Adam Shankman) [2008 г., фэнтези, комедия, семейный, HDRip-AVC]

в форуме 720p | 1080p, Размер: 2.18 ГБ, Здоровье: 0%

Anonymous

0
0|0

25
0

19 фев 2014, 11:41

Anonymous Перейти к последнему сообщению

В этой теме нет новых непрочитанных сообщений. Скачать торрент Сказки на ночь / Bedtime Stories (Адам Шенкман / Adam Shankman) [2008, США, фэнтези, комедия, семейный, HDRip] MVO

в форуме Детское, Семейное кино, Размер: 704.33 МБ, Здоровье: 0%

Anonymous

0
0|0

58
0

06 фев 2014, 11:44

Anonymous Перейти к последнему сообщению

В этой теме нет новых непрочитанных сообщений. Скачать торрент Проверен (Pop) Madonna - Bedtime Stories - 1994, FLAC (image+.cue), lossless

в форуме Зарубежная музыка, Размер: 498.92 МБ, Здоровье: 100%

Anonymous

0
9|3

0
0

17 авг 2016, 12:22

Anonymous Перейти к последнему сообщению

В этой теме нет новых непрочитанных сообщений. Скачать торрент Проверен (Indie, Experimental, Instrumental) Cats Never Die (Polar Bears) - Bedtime Stories - 2014, MP3, 320 kbps

в форуме Русский Рок, Размер: 42.55 МБ, Здоровье: 0%

Anonymous

0
0|0

0
0

22 авг 2016, 13:06

Anonymous Перейти к последнему сообщению



Сейчас этот форум просматривают: нет зарегистрированных пользователей и гости: 4


Вы не можете начинать темы
Вы не можете отвечать на сообщения
Вы не можете редактировать свои сообщения
Вы не можете удалять свои сообщения
Вы не можете добавлять вложения

Перейти:  

!ВНИМАНИЕ!
 Ресурс не предоставляет электронные версии произведений, а занимается лишь коллекционированием и каталогизацией ссылок, присылаемых и публикуемых на форуме нашими читателями. Если вы являетесь правообладателем какого-либо представленного материала и не желаете чтобы ссылка на него находилась в нашем каталоге, свяжитесь с нами и мы незамедлительно удалим её. Файлы для обмена на трекере предоставлены пользователями сайта, и администрация не несёт ответственности за их содержание. Просьба не заливать файлы, защищенные авторскими правами, а также файлы нелегального содержания!