На всех торрентах на трекере установлена скидка на скачивание в размере 100 процентов(а).
 Возможность скачивания торрента НЕ зависит от ограничений при низком ратио, низком аплоаде, требуемом ратио или требуемом аплоаде.


Начать новую тему Ответить на тему
Статистика раздачи
Размер: 5.93 ГБ | Добавлен: 20 апр 2014, 09:20 | Скачали: 221
Сидеров: 95  [0 байт/сек]    Личеров: 2  [0 байт/сек]
Пред. тема | След. тема 

Автор
Сообщение

СообщениеДобавлено: 20 апр 2014, 09:20 

Вкратце:
Бывшим любовникам Клодии и Мартину предстоит вновь работать вместе, хотя они и зарекались больше никогда этого не делать. Оба они оказываются зачисленными в специальное подразделение, призванное противостоять террористической угрозе и бороться с преступниками по всему миру. Так что теперь героям предстоит совершить турне по многим странам, в ходе которого им, возможно, удастся вновь оживить когда-то угасшие чувства.


Название: Замкнутая цепь
Оригинальное название: Closed Circuit
Год выхода: 2013
Жанр: триллер, драма, криминал, детектив
Режиссер: Джон Краули

В ролях: Эрик Бана, Ребекка Холл, Киаран Хайндс, Джим Бродбент, Кейт Лок, Кэтерин Пресс, Патрик Уорнер, Рики Никсон, Дэниэл Туит, Зора Бишоп, Джулия Стайлз





Выпущено: Великобритания, США
Продолжительность: 01:36:01
Озвучивание: Любительское (одноголосое) [Д.Виноградов]


Формат: MKV
Качество: BDRip 720p [decibeL]
Видео: 6888 kb/s, 1280x534
Аудио: Russian: AC3, 448 kb/s (6 ch) / English: DTS, 1510 kb/s (6 ch)
Субтитры: Russian [Д.Виноградов], English
Дополнительно: Сохранены оригинальные чаптеры как на Blu-Ray

Скачать: Сэмпл

Релиз группы:



Общее
Closed.Circuit.2013.Blu.Ray.720p.CINEMANIA.mkv
Формат : Matroska
Версия формата : Version 4 / Version 2
Размер файла : 5,93 Гбайт
Продолжительность : 1 ч. 36 м.
Общий поток : 8839 Кбит/сек
Название фильма : Release Group CINEMANIA
Дата кодирования : UTC 2014-04-18 23:07:39
Программа кодирования : mkvmerge v6.8.0 ('Theme for Great Cities') 64bit built on Mar 2 2014 21:34:26
Библиотека кодирования : libebml v1.3.0 + libmatroska v1.4.1

Видео
Идентификатор : 1
Формат : AVC
Формат/Информация : Advanced Video Codec
Профиль формата : High@L4.1
Параметр CABAC формата : Да
Параметр ReFrames формата : 12 кадров
Идентификатор кодека : V_MPEG4/ISO/AVC
Продолжительность : 1 ч. 36 м.
Битрейт : 6888 Кбит/сек
Ширина : 1280 пикселей
Высота : 534 пикселя
Соотношение сторон : 2,40:1
Режим частоты кадров : Постоянный
Частота кадров : 23,976 кадра/сек
Цветовое пространство : YUV
Субдискретизация насыщенности : 4:2:0
Битовая глубина : 8 бит
Тип развёртки : Прогрессивная
Бит/(Пиксели*Кадры) : 0.420
Размер потока : 4,50 Гбайт (76%)
Заголовок : Release Group CINEMANIA
Библиотека кодирования : x264 core 138 r2358 9e941d1
Настройки программы : cabac=1 / ref=12 / deblock=1:-3:-3 / analyse=0x3:0x113 / me=umh / subme=11 / psy=1 / psy_rd=1.00:0.00 / mixed_ref=1 / me_range=64 / chroma_me=1 / trellis=2 / 8x8dct=1 / cqm=0 / deadzone=21,11 / fast_pskip=0 / chroma_qp_offset=-2 / threads=6 / lookahead_threads=1 / sliced_threads=0 / nr=0 / decimate=0 / interlaced=0 / bluray_compat=0 / constrained_intra=0 / bframes=12 / b_pyramid=2 / b_adapt=2 / b_bias=0 / direct=3 / weightb=1 / open_gop=0 / weightp=2 / keyint=240 / keyint_min=23 / scenecut=40 / intra_refresh=0 / rc_lookahead=80 / rc=2pass / mbtree=1 / bitrate=6888 / ratetol=1.0 / qcomp=0.70 / qpmin=0 / qpmax=69 / qpstep=4 / cplxblur=20.0 / qblur=0.5 / vbv_maxrate=38000 / vbv_bufsize=30000 / nal_hrd=none / ip_ratio=1.20 / aq=2:0.90
Язык : English
Default : Да
Forced : Нет
Коэффициенты матрицы : BT.709

Аудио #1
Идентификатор : 2
Формат : AC-3
Формат/Информация : Audio Coding 3
Расширение режима : CM (complete main)
Параметр Endianness формата : Big
Идентификатор кодека : A_AC3
Продолжительность : 1 ч. 36 м.
Вид битрейта : Постоянный
Битрейт : 448 Кбит/сек
Каналы : 6 каналов
Расположение каналов : Front: L C R, Side: L R, LFE
Частота : 48,0 КГц
Битовая глубина : 16 бит
Метод сжатия : С потерями
Размер потока : 308 Мбайт (5%)
Заголовок : Д.Виноградов
Язык : Russian
Default : Да
Forced : Да

Аудио #2
Идентификатор : 3
Формат : DTS
Формат/Информация : Digital Theater Systems
Режим : 16
Параметр Endianness формата : Big
Идентификатор кодека : A_DTS
Продолжительность : 1 ч. 36 м.
Вид битрейта : Постоянный
Битрейт : 1509 Кбит/сек
Каналы : 6 каналов
Расположение каналов : Front: L C R, Side: L R, LFE
Частота : 48,0 КГц
Битовая глубина : 24 бит
Метод сжатия : С потерями
Размер потока : 1,01 Гбайт (17%)
Язык : English
Default : Нет
Forced : Нет

Текст #1
Идентификатор : 4
Формат : UTF-8
Идентификатор кодека : S_TEXT/UTF8
Идентификатор кодека/Информация : UTF-8 Plain Text
Заголовок : Д.Виноградов
Язык : Russian
Default : Нет
Forced : Нет

Текст #2
Идентификатор : 5
Формат : UTF-8
Идентификатор кодека : S_TEXT/UTF8
Идентификатор кодека/Информация : UTF-8 Plain Text
Язык : English
Default : Нет
Forced : Нет

Меню
00:00:00.000 : en:Chapter 1
00:05:04.596 : en:Chapter 2
00:10:29.879 : en:Chapter 3
00:15:28.845 : en:Chapter 4
00:21:37.755 : en:Chapter 5
00:25:39.830 : en:Chapter 6
00:30:22.821 : en:Chapter 7
00:34:12.592 : en:Chapter 8
00:40:17.915 : en:Chapter 9
00:45:10.416 : en:Chapter 10
00:50:56.929 : en:Chapter 11
00:54:49.119 : en:Chapter 12
01:02:06.139 : en:Chapter 13
01:05:46.985 : en:Chapter 14
01:11:58.231 : en:Chapter 15
01:16:25.039 : en:Chapter 16
01:19:44.321 : en:Chapter 17
01:22:34.449 : en:Chapter 18
01:27:59.983 : en:Chapter 19
01:31:54.968 : en:Chapter 20
загрузка...
Правила, инструкции, FAQ!!!
Торрент  Добавлен [20 апр 2014, 09:20] Скачать торрент
Скачать торрент
[ Размер 30.21 КБ / Просмотров 5 ]

Статус  
 
Размер  5.93 ГБ
Приватный: Нет (DHT включён)
.torrent скачан  221
Как залить торрент? | Как скачать Torrent? | Как смотреть и слушать онлайн?  


     Отправить личное сообщение
   
Страница 1 из 1
Показать сообщения за:  Поле сортировки  
Начать новую тему Ответить на тему

   Похожие торренты   Автор   Ответы   Просмотры   Последнее сообщение 
В этой теме нет новых непрочитанных сообщений. Скачать торрент Замкнутая цепь / Closed Circuit (2013) BDRip 1080p | L1

в форуме 720p | 1080p, Размер: 11.37 ГБ, Здоровье: 100%

Anonymous

0
6|0

21
59

20 апр 2014, 09:23

Anonymous Перейти к последнему сообщению

В этой теме нет новых непрочитанных сообщений. Скачать торрент Проверен Замкнутая цепь / Closed Circuit (2013) HDRip | P

в форуме Триллеры, Размер: 1.46 ГБ, Здоровье: 100%

Гость

0
704|219

37
226

20 апр 2014, 09:17

Гость Перейти к последнему сообщению

В этой теме нет новых непрочитанных сообщений. Скачать торрент Проверен (Post-Black | Metal Shoegaze | Dark trip-hop) Closed Room - Closed Room - 2012, MP3, 320 kbps

в форуме Русский Рок, Размер: 106.68 МБ, Здоровье: 0%

Anonymous

0
0|0

8
0

21 авг 2016, 07:31

Anonymous Перейти к последнему сообщению

В этой теме нет новых непрочитанных сообщений. Скачать торрент Проверен (Post-rock, shoegaze, black metal, trip-hop) Closed room - White bed sheet и Closed room - 2011-2012, MP3, 192-320 kbps

в форуме Русский Рок, Размер: 93.29 МБ, Здоровье: 0%

Anonymous

0
0|0

2
0

22 авг 2016, 01:24

Anonymous Перейти к последнему сообщению

В этой теме нет новых непрочитанных сообщений. Скачать торрент Роман Куликов | Цепь судьбы [2013] [FB2][TXT][JAVA(jar+jad)]

в форуме Фантастика, фэнтези, Размер: 3.07 МБ, Здоровье: 100%

Anonymous

0
3|1

21
0

11 апр 2014, 23:30

Anonymous Перейти к последнему сообщению



Сейчас этот форум просматривают: нет зарегистрированных пользователей и гости: 1


Вы не можете начинать темы
Вы не можете отвечать на сообщения
Вы не можете редактировать свои сообщения
Вы не можете удалять свои сообщения
Вы не можете добавлять вложения

Перейти:  

!ВНИМАНИЕ!
 Ресурс не предоставляет электронные версии произведений, а занимается лишь коллекционированием и каталогизацией ссылок, присылаемых и публикуемых на форуме нашими читателями. Если вы являетесь правообладателем какого-либо представленного материала и не желаете чтобы ссылка на него находилась в нашем каталоге, свяжитесь с нами и мы незамедлительно удалим её. Файлы для обмена на трекере предоставлены пользователями сайта, и администрация не несёт ответственности за их содержание. Просьба не заливать файлы, защищенные авторскими правами, а также файлы нелегального содержания!