На всех торрентах на трекере установлена скидка на скачивание в размере 100 процентов(а).
 Возможность скачивания торрента НЕ зависит от ограничений при низком ратио, низком аплоаде, требуемом ратио или требуемом аплоаде.


Начать новую тему Ответить на тему
Статистика раздачи
Размер: 3.42 ГБ | Добавлен: 20 апр 2014, 08:53 | Скачали: 2
Сидеров: 56  [0 байт/сек]    Личеров: 19  [0 байт/сек]
Пред. тема | След. тема 

Автор
Сообщение

СообщениеДобавлено: 20 апр 2014, 08:53 

Человек с Земли / The Man from Earth


Страна: США
Жанр: фантастика, драма
Год выпуска: 2007
Продолжительность: 01:27:08

Перевод: Профессиональный (многоголосый закадровый) | Кубик в Кубе
Cубтитры: русские, английские
Оригинальная аудиодорожка: английский

Режиссер: Ричард Шенкман
Сценарий: Джером Биксби

В ролях: Дэвид Ли Смит, Тони Тодд, Джон Биллингсли, Эллен Кроуфорд, Анника Петерсон, Уильям Кэтт, Алексис Торпе, Ричард Риле

Описание: Импровизированная прощальная вечеринка профессора стала загадкой после того, как учёный рассказывает своим коллегам, что он бессмертный, который ходит по земле уже 14000 лет…



Тип релиза: BDRip 720p (от MySiLU)
Контейнер: MKV
Видео кодек: x264
Видео: AVC 1276x720 (16:9), 23.976 fps, ~4747 Kbps, 0.22 bit/pixel
Аудио #1: Russian AC3 2ch 48kHz 224Kbps | MVO
Аудио #2: English AC3 6ch 48kHz 640Kbps | Original
Формат субтитров: softsub (SRT)
MediaInfo
General
Complete name : E:\...\The.Man.From.Earth.2007.BluRay.720p.x264.AC3.Rus.Eng-MySiLU.mkv
Format : Matroska
File size : 3.42 GiB
Duration : 1h 27mn
Overall bit rate : 5 613 Kbps
Encoded date : UTC 2011-06-18 10:47:57
Writing application : mkvmerge v4.0.0 ('The Stars were mine') сборка от Jun 6 2010 16:18:42
Writing library : libebml v1.0.0 + libmatroska v1.0.0

Video
ID : 1
Format : AVC
Format/Info : Advanced Video Codec
Format profile : High@L4.1
Format settings, CABAC : Yes
Format settings, ReFrames : 8 frames
Codec ID : V_MPEG4/ISO/AVC
Duration : 1h 27mn
Bit rate : 4 747 Kbps
Width : 1 276 pixels
Height : 720 pixels
Display aspect ratio : 16:9
Original display aspect ratio : 16:9
Frame rate : 23.976 fps
Color space : YUV
Chroma subsampling : 4:2:0
Bit depth : 8 bits
Scan type : Progressive
Bits/(Pixel*Frame) : 0.216
Stream size : 2.82 GiB (83%)
Writing library : x264 core 110 r1804 e89c4cf
Encoding settings : cabac=1 / ref=8 / deblock=1:-2:-2 / analyse=0x3:0x133 / me=umh / subme=9 / psy=1 / psy_rd=1.20:0.20 / mixed_ref=1 / me_range=32 / chroma_me=1 / trellis=2 / 8x8dct=1 / cqm=0 / deadzone=21,11 / fast_pskip=1 / chroma_qp_offset=-3 / threads=12 / sliced_threads=0 / nr=0 / decimate=0 / interlaced=0 / constrained_intra=0 / bframes=3 / b_pyramid=2 / b_adapt=2 / b_bias=0 / direct=3 / weightb=1 / open_gop=0 / weightp=2 / keyint=250 / keyint_min=2 / scenecut=40 / intra_refresh=0 / rc_lookahead=60 / rc=2pass / mbtree=1 / bitrate=4747 / ratetol=1.0 / qcomp=0.70 / qpmin=10 / qpmax=51 / qpstep=4 / cplxblur=20.0 / qblur=0.5 / vbv_maxrate=38000 / vbv_bufsize=38000 / ip_ratio=1.40 / aq=1:1.00 / nal_hrd=none
Language : English

Audio #1
ID : 2
Format : AC-3
Format/Info : Audio Coding 3
Mode extension : CM (complete main)
Codec ID : A_AC3
Duration : 1h 27mn
Bit rate mode : Constant
Bit rate : 224 Kbps
Channel(s) : 2 channels
Channel positions : Front: L R
Sampling rate : 48.0 KHz
Bit depth : 16 bits
Compression mode : Lossy
Stream size : 140 MiB (4%)
Title : MVO Kubik v Kube
Language : Russian

Audio #2
ID : 3
Format : AC-3
Format/Info : Audio Coding 3
Mode extension : CM (complete main)
Codec ID : A_AC3
Duration : 1h 27mn
Bit rate mode : Constant
Bit rate : 640 Kbps
Channel(s) : 6 channels
Channel positions : Front: L C R, Side: L R, LFE
Sampling rate : 48.0 KHz
Bit depth : 16 bits
Compression mode : Lossy
Stream size : 399 MiB (11%)
Title : Original
Language : English

Text #1
ID : 4
Format : UTF-8
Codec ID : S_TEXT/UTF8
Codec ID/Info : UTF-8 Plain Text
Language : Russian

Text #2
ID : 5
Format : UTF-8
Codec ID : S_TEXT/UTF8
Codec ID/Info : UTF-8 Plain Text
Language : English
Скриншоты



загрузка...
Правила, инструкции, FAQ!!!
Торрент  Добавлен [20 апр 2014, 08:53] Скачать торрент
Скачать торрент
[ Размер 17.61 КБ / Просмотров 12 ]

Статус  
 
Размер  3.42 ГБ
Приватный: Нет (DHT включён)
.torrent скачан  2
Как залить торрент? | Как скачать Torrent? | Как смотреть и слушать онлайн?  


     Отправить личное сообщение
   
Страница 1 из 1
Показать сообщения за:  Поле сортировки  
Начать новую тему Ответить на тему

   Похожие торренты   Автор   Ответы   Просмотры   Последнее сообщение 
В этой теме нет новых непрочитанных сообщений. Скачать торрент Проверен [iPod] Человек с Земли / The Man from Earth (Ричард Шенкман / Richard Schenkman) [2007, фантастика, драма, HDRip]

в форуме Фильмы для iPod, iPhone, iPad, Размер: 381.18 МБ, Здоровье: 100%

Anonymous

0
2|1

37
0

18 май 2015, 10:46

Anonymous Перейти к последнему сообщению

В этой теме нет новых непрочитанных сообщений. Скачать торрент Проверен [iPhone] Человек с Земли / The Man from Earth (Ричард Шенкман / Richard Schenkman) [2007, фантастика, драма, HDRip, 480x272]

в форуме Фильмы для iPod, iPhone, iPad, Размер: 474.77 МБ, Здоровье: 100%

Anonymous

0
3|1

47
1

18 май 2015, 10:53

Anonymous Перейти к последнему сообщению

В этой теме нет новых непрочитанных сообщений. Скачать торрент Проверен Человек с Земли / The Man from Earth (2007) BDRip-AVC | P, A

в форуме Фантастика, Фэнтези, Размер: 2.96 ГБ, Здоровье: 0%

Anonymous

0
0|0

81
0

07 сен 2014, 20:06

Anonymous Перейти к последнему сообщению

В этой теме нет новых непрочитанных сообщений. Скачать торрент Посылка / The Box (Ричард Келли / Richard Kelly) [2009, Фантастика, триллер, драма, детектив, BDRip] Dub

в форуме Фантастика, Фэнтези, Размер: 1.46 ГБ, Здоровье: 100%

Anonymous

0
34|11

50
0

01 апр 2014, 09:33

Anonymous Перейти к последнему сообщению

В этой теме нет новых непрочитанных сообщений. Скачать торрент Донни Дарко / Donnie Darko (Ричард Келли / Richard Kelly) [2001 г., драма, мистика, фантастика, триллер, HDRip] (Режиссерская версия / Directors cut) MVO (Киномания)

в форуме Фантастика, Фэнтези, Размер: 1.46 ГБ, Здоровье: 100%

Anonymous

0
43|11

59
1

03 фев 2014, 12:33

Anonymous Перейти к последнему сообщению



Сейчас этот форум просматривают: нет зарегистрированных пользователей и гости: 2


Вы не можете начинать темы
Вы не можете отвечать на сообщения
Вы не можете редактировать свои сообщения
Вы не можете удалять свои сообщения
Вы не можете добавлять вложения

Перейти:  

!ВНИМАНИЕ!
 Ресурс не предоставляет электронные версии произведений, а занимается лишь коллекционированием и каталогизацией ссылок, присылаемых и публикуемых на форуме нашими читателями. Если вы являетесь правообладателем какого-либо представленного материала и не желаете чтобы ссылка на него находилась в нашем каталоге, свяжитесь с нами и мы незамедлительно удалим её. Файлы для обмена на трекере предоставлены пользователями сайта, и администрация не несёт ответственности за их содержание. Просьба не заливать файлы, защищенные авторскими правами, а также файлы нелегального содержания!