На всех торрентах на трекере установлена скидка на скачивание в размере 100 процентов(а).
 Возможность скачивания торрента НЕ зависит от ограничений при низком ратио, низком аплоаде, требуемом ратио или требуемом аплоаде.


Начать новую тему Ответить на тему
Статистика раздачи
Размер: 5.76 ГБ | Добавлен: 20 апр 2014, 08:04 | Скачали: 573
Сидеров: 52  [0 байт/сек]    Личеров: 3  [0 байт/сек]
Пред. тема | След. тема 

Автор
Сообщение

СообщениеДобавлено: 20 апр 2014, 08:04 

Вкратце: Профессор Александр Хартдеген изобрел машину времени и отправился в прошлое спасти свою невесту от случайной пули. Но ее смерть предотвратить не удалось — прошлое нельзя изменить. В поисках ответа на вопрос «почему?» Хартдеген забирается на двести лет в будущее и застает Землю в ужасающем состоянии. Получив ранение и впав в беспамятство, он и не заметил, как его машина прошла сквозь восемьсот тысяч лет истории планеты Земля — человечество изменилось, эпоха технократии канула в лету.


Название: Машина времени
Оригинальное название: The Time Machine
Год выхода: 2002
Жанр: фантастика, боевик, приключения
Режиссер: Саймон Уэллс

В ролях: Гай Пирс, Саманта Мамба, Орландо Джонс, Марк Эдди, Джереми Айронс, Сиенна Гиллори, Макс Бейкер, Филлида Ло, Лаура Кирк, Джош Стэмберг





Выпущено: Warner Bros., DreamWorks SKG
Продолжительность: 01:35:45
Перевод: Дублированный (лицензия)


Кодек: x264
Качество: BDRip (источник: Blu-ray Disc)
Видео: 1920x792 (2,40:1), 23.976 fps, 7720 kbps
Аудио #1: AC-3, 6 ch, 448 kbps (Rus)
Аудио #2: AC-3, 6 ch, 448 kbps (Eng)
Субтитры: Русские (форс,полные), Английские
Скачать: сэмпл

Скриншоты

Общее
Уникальный идентификатор : 190931709148622567107946519354948090760 (0x8FA41C0EA14A22188BE40E423DE27B88)
Полное имя : The.Time.Machine.2002.BDRip.1080p.Rus.Eng.mkv
Формат : Matroska
Версия формата : Version 2
Размер файла : 5,76 Гбайт
Продолжительность : 1 ч. 35 м.
Общий поток : 8614 Кбит/сек
Название фильма : Машина времени / The Time Machine (2002)
Дата кодирования : UTC 2014-04-17 17:56:43
Программа кодирования : mkvmerge v5.8.0 ('No Sleep / Pillow') built on Sep 2 2012 15:37:04
Библиотека кодирования : libebml v1.2.3 + libmatroska v1.3.0

Видео
Идентификатор : 1
Формат : AVC
Формат/Информация : Advanced Video Codec
Профиль формата : High@L4.1
Параметр CABAC формата : Да
Параметр ReFrames формата : 5 кадров
Идентификатор кодека : V_MPEG4/ISO/AVC
Продолжительность : 1 ч. 35 м.
Битрейт : 7720 Кбит/сек
Ширина : 1920 пикселей
Высота : 792 пикселя
Соотношение сторон : 2,40:1
Режим частоты кадров : Постоянный
Частота кадров : 23,976 кадра/сек
Цветовое пространство : YUV
Субдискретизация насыщенности : 4:2:0
Битовая глубина : 8 бит
Тип развёртки : Прогрессивная
Бит/(Пиксели*Кадры) : 0.212
Размер потока : 5,05 Гбайт (88%)
Заголовок : Release by AlexKa
Библиотека кодирования : x264 core 142 r2409 d6b4e63
Настройки программы : cabac=1 / ref=5 / deblock=1:-3:-3 / analyse=0x3:0x133 / me=umh / subme=11 / psy=1 / psy_rd=1.00:0.00 / mixed_ref=1 / me_range=32 / chroma_me=1 / trellis=2 / 8x8dct=1 / cqm=0 / deadzone=21,11 / fast_pskip=0 / chroma_qp_offset=-2 / threads=12 / lookahead_threads=2 / sliced_threads=0 / nr=0 / decimate=1 / interlaced=0 / bluray_compat=0 / constrained_intra=0 / bframes=9 / b_pyramid=2 / b_adapt=2 / b_bias=0 / direct=3 / weightb=1 / open_gop=0 / weightp=2 / keyint=240 / keyint_min=23 / scenecut=40 / intra_refresh=0 / rc=2pass / mbtree=0 / bitrate=7720 / ratetol=1.0 / qcomp=0.60 / qpmin=0 / qpmax=69 / qpstep=4 / cplxblur=20.0 / qblur=0.5 / ip_ratio=1.40 / pb_ratio=1.30 / aq=1:1.00
Язык : English

Аудио #1
Идентификатор : 2
Формат : AC-3
Формат/Информация : Audio Coding 3
Расширение режима : CM (complete main)
Параметр Endianness формата : Big
Идентификатор кодека : A_AC3
Продолжительность : 1 ч. 35 м.
Вид битрейта : Постоянный
Битрейт : 448 Кбит/сек
Каналы : 6 каналов
Расположение каналов : Front: L C R, Side: L R, LFE
Частота : 48,0 КГц
Битовая глубина : 16 бит
Метод сжатия : С потерями
Размер потока : 307 Мбайт (5%)
Заголовок : Rus
Язык : Russian

Аудио #2
Идентификатор : 3
Формат : AC-3
Формат/Информация : Audio Coding 3
Расширение режима : CM (complete main)
Параметр Endianness формата : Big
Идентификатор кодека : A_AC3
Продолжительность : 1 ч. 35 м.
Вид битрейта : Постоянный
Битрейт : 448 Кбит/сек
Каналы : 6 каналов
Расположение каналов : Front: L C R, Side: L R, LFE
Частота : 48,0 КГц
Битовая глубина : 16 бит
Метод сжатия : С потерями
Размер потока : 307 Мбайт (5%)
Заголовок : Eng
Язык : English

Текст #1
Идентификатор : 4
Формат : UTF-8
Идентификатор кодека : S_TEXT/UTF8
Идентификатор кодека/Информация : UTF-8 Plain Text
Заголовок : Rus forced
Язык : Russian

Текст #2
Идентификатор : 5
Формат : UTF-8
Идентификатор кодека : S_TEXT/UTF8
Идентификатор кодека/Информация : UTF-8 Plain Text
Заголовок : Rus
Язык : Russian

Текст #3
Идентификатор : 6
Формат : UTF-8
Идентификатор кодека : S_TEXT/UTF8
Идентификатор кодека/Информация : UTF-8 Plain Text
Заголовок : Eng
Язык : English

Меню
00:00:00.000 : :Chapter 01
00:03:33.118 : :Chapter 02
00:07:26.201 : :Chapter 03
00:12:00.119 : :Chapter 04
00:18:13.644 : :Chapter 05
00:24:55.308 : :Chapter 06
00:30:07.587 : :Chapter 07
00:36:20.175 : :Chapter 08
00:46:07.054 : :Chapter 09
00:53:21.902 : :Chapter 10
01:01:23.780 : :Chapter 11
01:08:10.210 : :Chapter 12
01:17:32.881 : :Chapter 13
01:22:34.109 : :Chapter 14
01:26:24.533 : :Chapter 15
01:29:53.341 : :Chapter 16
01:35:39.988 : :Chapter 17
x264 [info]: frame I:929 Avg QP:16.33 size:135761
x264 [info]: frame P:31055 Avg QP:18.61 size: 67145
x264 [info]: frame B:105758 Avg QP:20.51 size: 31484
x264 [info]: consecutive B-frames: 2.9% 3.5% 6.2% 30.7% 16.7% 10.5% 5.7% 17.8% 3.5% 2.4%
загрузка...
Правила, инструкции, FAQ!!!
Торрент  Добавлен [20 апр 2014, 08:04] Скачать торрент
Скачать торрент
[ Размер 15.08 КБ / Просмотров 11 ]

Статус  
 
Размер  5.76 ГБ
Приватный: Нет (DHT включён)
.torrent скачан  573
Как залить торрент? | Как скачать Torrent? | Как смотреть и слушать онлайн?  


     Отправить личное сообщение
   
Страница 1 из 1
Показать сообщения за:  Поле сортировки  
Начать новую тему Ответить на тему

   Похожие торренты   Автор   Ответы   Просмотры   Последнее сообщение 
В этой теме нет новых непрочитанных сообщений. Скачать торрент Машина времени / The Time Machine (2002) DTheater-Rip-AVC

в форуме Фантастика, Фэнтези, Размер: 1.45 ГБ, Здоровье: 100%

Anonymous

0
42|1

37
400

20 апр 2014, 08:09

Anonymous Перейти к последнему сообщению

В этой теме нет новых непрочитанных сообщений. Скачать торрент Машина / The Machine (2013) BDRip 1080p | L1

в форуме 720p | 1080p, Размер: 7.09 ГБ, Здоровье: 0%

Anonymous

0
0|0

26
0

13 апр 2014, 09:01

Anonymous Перейти к последнему сообщению

В этой теме нет новых непрочитанных сообщений. Скачать торрент Проверен [iPad] Машина времени / The Time Machine (Саймон Уэллс / Simon Wells ) [2002, США, фантастика, боевик, приключения, HDDVDRip, SD (576p)] DUB + Original + sub (rus, eng)

в форуме Фильмы для iPod, iPhone, iPad, Размер: 1.67 ГБ, Здоровье: 100%

Гость

0
19|6

34
0

11 май 2015, 01:38

Гость Перейти к последнему сообщению

В этой теме нет новых непрочитанных сообщений. Скачать торрент Машина времени в джакузи / Hot Tub Time Machine (Стив Пинк / Steve Pink) [2010, США, фантастика, комедия, BDRip] [Театральная версия / Theatrical Cut] Dub

в форуме Фантастика, Фэнтези, Размер: 1.45 ГБ, Здоровье: 100%

Anonymous

0
56|19

91
0

04 фев 2014, 21:25

Anonymous Перейти к последнему сообщению

В этой теме нет новых непрочитанных сообщений. Скачать торрент Проверен Летающая машина в 3Д / The Flying Machine 3D (Мартин Клэпп, Дорота Кобеля, Джофф Линдси / Martin Clapp, Dorota Kobiela, Geoff Lindsey) [2011, Мультфильм, Музыкальный, Приключения, Семейный, BDrip, 1080p] OverUnder / Вертикальная стереопара

в форуме 3D Мультфильмы, Размер: 11.65 ГБ, Здоровье: 0%

Anonymous

0
0|0

3
0

07 сен 2016, 17:33

Anonymous Перейти к последнему сообщению



Сейчас этот форум просматривают: нет зарегистрированных пользователей и гости: 1


Вы не можете начинать темы
Вы не можете отвечать на сообщения
Вы не можете редактировать свои сообщения
Вы не можете удалять свои сообщения
Вы не можете добавлять вложения

Перейти:  

!ВНИМАНИЕ!
 Ресурс не предоставляет электронные версии произведений, а занимается лишь коллекционированием и каталогизацией ссылок, присылаемых и публикуемых на форуме нашими читателями. Если вы являетесь правообладателем какого-либо представленного материала и не желаете чтобы ссылка на него находилась в нашем каталоге, свяжитесь с нами и мы незамедлительно удалим её. Файлы для обмена на трекере предоставлены пользователями сайта, и администрация не несёт ответственности за их содержание. Просьба не заливать файлы, защищенные авторскими правами, а также файлы нелегального содержания!