На всех торрентах на трекере установлена скидка на скачивание в размере 100 процентов(а).
 Возможность скачивания торрента НЕ зависит от ограничений при низком ратио, низком аплоаде, требуемом ратио или требуемом аплоаде.


Начать новую тему Ответить на тему
Статистика раздачи
Размер: 815.96 МБ | Добавлен: 09 янв 2013, 17:49 | Скачали: 0
Сидеров: 0  [0 байт/сек]    Личеров: 0  [0 байт/сек]
Пред. тема | След. тема 

Автор
Сообщение

СообщениеДобавлено: 09 янв 2013, 17:49 

Название: Мистер вонючка
Оригинальное название: Mr. Stink
Год выпуска: 2012
Страна: Великобритания
Жанр: семейный
Продолжительность: ~ 01:00:00
Перевод: Профессиональный (многоголосый, закадровый) - Baibako
Субтитры: Нет
Режиссер: Деклан Лауни

В ролях: Хью Бонневилль, Шеридан Смит, Дэвид Уоллиамс, Стив Пембертон, Джонни Вегас, Изабелла Блейк Томас, Хариш Патель, Нелл Тайгер Фри, Джемма Донован

Описание: Что получится, если лорд Грэнтэм из "Аббатства Даунтон" станет немытым бездомным, оставаясь при этом аристократом душой? Загадку мистера Вонючки предстоит разгадать под самое Рождество школьнице Хлои. Когда ее мать ударяется с головой в политику, а отец теряет работу и тоскует по прежней жизни рок-гитариста, Хлои встречает странноватого друга - бездомного с собакой. И приглашает его пожить в сарае у дома.



Перевод: Юлия Луцкая
Озвучка: Юлия Котурбаш, Елена Григорьева, Алексей Кузнецов и Виталий Ткаченко

Качество: HDTVRip-AVC
Формат: mp4
Видео кодек: AVC
Аудио кодек: AAC
Видео: AVC, 1536 Кбит/сек 720x306 25,000 кадров/сек
Аудио rus: 48,0 КГц, 2 канала, 192 Кбит/сек
Аудио ger: 48,0 КГц, 2 канала, 192 Кбит/сек

Формат : MPEG-4
Профиль формата : Base Media
Идентификатор кодека : isom
Размер файла : 816 Мбайт
Продолжительность : 59 м.
Общий поток : 1923 Кбит/сек
Дата кодирования : UTC 2013-01-05 01:17:30
Дата пометки : UTC 2013-01-05 01:17:30

Видео
Идентификатор : 1
Формат : AVC
Формат/Информация : Advanced Video Codec
Профиль формата : Baseline@L3.0
Параметр CABAC формата : Нет
Параметр ReFrames формата : 3 кадра
Идентификатор кодека : avc1
Идентификатор кодека/Информация : Advanced Video Coding
Продолжительность : 59 м.
Вид битрейта : Переменный
Битрейт : 1536 Кбит/сек
Максимальный битрейт : 10000 Кбит/сек
Ширина : 720 пикс.
Высота : 306 пикс.
Соотношение сторон : 2,35:1
Режим частоты кадров : Постоянный
Частота кадров : 25,000 кадр/сек
Цветовое пространство : YUV
Подвыборка цветности : 4:2:0
Битовая глубина : 8 бит
Тип развёртки : Прогрессивная
Бит/(Пиксели*Кадры) : 0.279
Размер потока : 651 Мбайт (80%)
Заголовок : mr stink 2012 720p hdtv x264-tla
Библиотека кодирования : x264 core 125 r2208 d9d2288
Настройки программы : cabac=0 / ref=3 / deblock=1:0:0 / analyse=0x1:0x111 / me=hex / subme=7 / psy=1 / psy_rd=1.00:0.00 / mixed_ref=1 / me_range=16 / chroma_me=1 / trellis=1 / 8x8dct=0 / cqm=0 / deadzone=21,11 / fast_pskip=1 / chroma_qp_offset=-2 / threads=6 / lookahead_threads=1 / sliced_threads=0 / nr=0 / decimate=1 / interlaced=0 / bluray_compat=0 / constrained_intra=0 / bframes=0 / weightp=0 / keyint=250 / keyint_min=25 / scenecut=40 / intra_refresh=0 / rc_lookahead=40 / rc=2pass / mbtree=1 / bitrate=1536 / ratetol=1.0 / qcomp=0.60 / qpmin=0 / qpmax=69 / qpstep=4 / cplxblur=20.0 / qblur=0.5 / vbv_maxrate=10000 / vbv_bufsize=10000 / nal_hrd=vbr / ip_ratio=1.40 / aq=1:1.00
Дата кодирования : UTC 2013-01-05 01:03:48
Дата пометки : UTC 2013-01-05 01:19:16

Аудио #1
Идентификатор : 2
Формат : AAC
Формат/Информация : Advanced Audio Codec
Профиль формата : LC
Идентификатор кодека : 40
Продолжительность : 59 м.
Вид битрейта : Переменный
Битрейт : 192 Кбит/сек
Максимальный битрейт : 198 Кбит/сек
Каналы : 2 канала
Расположение каналов : Front: L R
Частота : 48,0 КГц
Метод сжатия : С потерями
Размер потока : 81,5 Мбайт (10%)
Язык : Russian
Дата кодирования : UTC 2013-01-05 01:19:12
Дата пометки : UTC 2013-01-05 01:19:16

Аудио #2
Идентификатор : 3
Формат : AAC
Формат/Информация : Advanced Audio Codec
Профиль формата : LC
Идентификатор кодека : 40
Продолжительность : 59 м.
Вид битрейта : Переменный
Битрейт : 192 Кбит/сек
Максимальный битрейт : 200 Кбит/сек
Каналы : 2 канала
Расположение каналов : Front: L R
Частота : 48,0 КГц
Метод сжатия : С потерями
Размер потока : 81,5 Мбайт (10%)
Язык : English
Дата кодирования : UTC 2013-01-05 01:19:13
Дата пометки : UTC 2013-01-05 01:19:16

загрузка...
Правила, инструкции, FAQ!!!
Торрент  Добавлен [09 янв 2013, 17:49] Скачать торрент
Скачать торрент
[ Размер 16.35 КБ / Просмотров 9 ]

Статус
Проверен 
 
Размер  815.96 МБ
Приватный: Нет (DHT включён)
.torrent скачан  0
Как залить торрент? | Как скачать Torrent? | Как смотреть и слушать онлайн?  


     Отправить личное сообщение
   
Страница 1 из 1
Показать сообщения за:  Поле сортировки  
Начать новую тему Ответить на тему

   Похожие торренты   Автор   Ответы   Просмотры   Последнее сообщение 
В этой теме нет новых непрочитанных сообщений. Скачать торрент Мистер Судьба / Повороты судьбы / Мистер Дестини / Mr. Destiny (1990) DVDRip

в форуме Комедии, Размер: 2.25 ГБ, Здоровье: 100%

Anonymous

0
2|0

43
1

14 дек 2013, 21:16

Anonymous Перейти к последнему сообщению

В этой теме нет новых непрочитанных сообщений. Скачать торрент Проверен (Jazz-Rock, Funk, Electronic) [WEB] Organasm - Stink Pocket - 2012, FLAC (tracks), lossless

в форуме Progressive & Art-Rock, Размер: 392.62 МБ, Здоровье: 0%

Anonymous

0
0|0

0
0

30 авг 2016, 00:41

Anonymous Перейти к последнему сообщению

В этой теме нет новых непрочитанных сообщений. Скачать торрент Мистер пип / Mr. Pip (2012) HDRip | L

в форуме Драмы, Мелодрамы, Размер: 1.53 ГБ, Здоровье: 20%

Anonymous

0
1|5

20
1

14 апр 2014, 20:59

Anonymous Перейти к последнему сообщению

В этой теме нет новых непрочитанных сообщений. Скачать торрент Мистер пип / Mr. Pip (2012) BDRip 720p | L

в форуме 720p | 1080p, Размер: 5.85 ГБ, Здоровье: 100%

Anonymous

0
11|1

20
205

14 апр 2014, 21:06

Anonymous Перейти к последнему сообщению

В этой теме нет новых непрочитанных сообщений. Скачать торрент Проверен Линклэйтер Эрик - Мистер Бикулла [Ерисанова Ирина, 2012, 96 kbps, MP3]

в форуме Детектив и Боевики, Размер: 167.1 МБ, Здоровье: 0%

Anonymous

0
0|0

5
0

04 май 2016, 21:52

Anonymous Перейти к последнему сообщению



Сейчас этот форум просматривают: нет зарегистрированных пользователей и гости: 2


Вы не можете начинать темы
Вы не можете отвечать на сообщения
Вы не можете редактировать свои сообщения
Вы не можете удалять свои сообщения
Вы не можете добавлять вложения

Перейти:  

!ВНИМАНИЕ!
 Ресурс не предоставляет электронные версии произведений, а занимается лишь коллекционированием и каталогизацией ссылок, присылаемых и публикуемых на форуме нашими читателями. Если вы являетесь правообладателем какого-либо представленного материала и не желаете чтобы ссылка на него находилась в нашем каталоге, свяжитесь с нами и мы незамедлительно удалим её. Файлы для обмена на трекере предоставлены пользователями сайта, и администрация не несёт ответственности за их содержание. Просьба не заливать файлы, защищенные авторскими правами, а также файлы нелегального содержания!