На всех торрентах на трекере установлена скидка на скачивание в размере 100 процентов(а).
 Возможность скачивания торрента НЕ зависит от ограничений при низком ратио, низком аплоаде, требуемом ратио или требуемом аплоаде.


Начать новую тему Ответить на тему
Статистика раздачи
Размер: 5.76 ГБ | Добавлен: 08 янв 2013, 19:20 | Скачали: 45
Сидеров: 33  [0 байт/сек]    Личеров: 2  [0 байт/сек]
Пред. тема | След. тема 

Автор
Сообщение

СообщениеДобавлено: 08 янв 2013, 19:20 

Информация о фильме
Название: Хаос
Оригинальное название: Chaos
Год выхода: 2005
Жанр: боевик, триллер, драма, криминал
Режиссер: Тони Гиглио
В ролях: Джейсон Стэтхэм, Райан Филлипп, Уэсли Снайпс, Генри Черни, Кимани Рэй Смит, Джастин Уэдделл, Майк Допад, Ти Олссон

О фильме:
Самым обычным утром банда грабителей захватывает банк и берет в заложники всех, кто в нем находится. Полиция окружает здание банка. Вожак банды Лоренц требует вызвать переговорщика, настаивая на том, что им может быть только детектив Коннерс. А так как Коннерс числится в полиции «на плохом счету», к нему приставляют напарника — новичка Деккера.
Пока Коннерс ведет переговоры, в банк врывается полицейский спецназ. В начавшемся хаосе грабителям удается смешаться с заложниками и выскользнуть из банка. Но самым странным оказалось то, что грабители не унесли с собой ни единого цента. А вскоре выясняется, что во время осады и перестрелки с банковских счетов компьютерным способом был снят миллиард долларов. Распутывая это дело, Коннерс и Деккер нащупывают нити заговора, ведущие на самый «верх»…



Выпущено: США, Канада, Великобритания
Продолжительность: 01:46:21
Перевод: Дублированный + Оригинал

Файл
Кодек: x264
Качество: BDRip 1080p
Видео: 1920x816, 6450 Kbps, 23.976 fps
Аудио #1: AC-3, 6 ch, 640 kbps (Rus)
Аудио #2: AC-3, 6 ch, 640 kbps (Eng)
Субтитры: русские (полные, форсированные), английские

Общее
Уникальный идентификатор : 178963791446642178003392101512807743254 (0x86A32C285BADC5889C6482830E387F16)
Полное имя : Хаос.2005.BDRip.1080p.Rus.Eng.mkv
Формат : Matroska
Версия формата : Version 2
Размер файла : 5,76 Гбайт
Продолжительность : 1 ч. 46 м.
Общий поток : 7757 Кбит/сек
Название фильма : Хаос.2005
Дата кодирования : UTC 2013-01-08 15:55:05
Программа кодирования : mkvmerge v5.8.0 ('No Sleep / Pillow') built on Sep 2 2012 15:37:04
Библиотека кодирования : libebml v1.2.3 + libmatroska v1.3.0

Видео
Идентификатор : 1
Формат : AVC
Формат/Информация : Advanced Video Codec
Профиль формата : High@L4.1
Параметр CABAC формата : Да
Параметр ReFrames формата : 5 кадров
Идентификатор кодека : V_MPEG4/ISO/AVC
Продолжительность : 1 ч. 46 м.
Битрейт : 6450 Кбит/сек
Ширина : 1920 пикселей
Высота : 816 пикселей
Соотношение сторон : 2,35:1
Режим частоты кадров : Постоянный
Частота кадров : 23,976 кадра/сек
Цветовое пространство : YUV
Субдискретизация насыщенности : 4:2:0
Битовая глубина : 8 бит
Тип развёртки : Прогрессивная
Бит/(Пиксели*Кадры) : 0.172
Размер потока : 4,70 Гбайт (82%)
Заголовок : Rip by Boriy
Библиотека кодирования : x264 core 129 r2230 1cffe9f
Настройки программы : cabac=1 / ref=5 / deblock=1:0:0 / analyse=0x3:0x113 / me=umh / subme=10 / psy=1 / psy_rd=1.00:0.10 / mixed_ref=1 / me_range=32 / chroma_me=1 / trellis=2 / 8x8dct=1 / cqm=0 / deadzone=21,11 / fast_pskip=0 / chroma_qp_offset=-2 / threads=12 / lookahead_threads=2 / sliced_threads=0 / nr=0 / decimate=0 / interlaced=0 / bluray_compat=0 / constrained_intra=0 / bframes=5 / b_pyramid=2 / b_adapt=2 / b_bias=0 / direct=3 / weightb=1 / open_gop=0 / weightp=2 / keyint=240 / keyint_min=23 / scenecut=40 / intra_refresh=0 / rc=2pass / mbtree=0 / bitrate=6450 / ratetol=1.0 / qcomp=0.60 / qpmin=0 / qpmax=69 / qpstep=4 / cplxblur=20.0 / qblur=0.5 / ip_ratio=1.40 / pb_ratio=1.30 / aq=1:0.80
Язык : English
Default : Да
Forced : Нет

Аудио #1
Идентификатор : 2
Формат : AC-3
Формат/Информация : Audio Coding 3
Расширение режима : CM (complete main)
Параметр Endianness формата : Big
Идентификатор кодека : A_AC3
Продолжительность : 1 ч. 46 м.
Вид битрейта : Постоянный
Битрейт : 640 Кбит/сек
Каналы : 6 каналов
Расположение каналов : Front: L C R, Side: L R, LFE
Частота : 48,0 КГц
Битовая глубина : 16 бит
Метод сжатия : С потерями
Размер потока : 487 Мбайт (8%)
Заголовок : Дубляж
Язык : Russian
Default : Да
Forced : Нет

Аудио #2
Идентификатор : 3
Формат : AC-3
Формат/Информация : Audio Coding 3
Расширение режима : CM (complete main)
Параметр Endianness формата : Big
Идентификатор кодека : A_AC3
Продолжительность : 1 ч. 46 м.
Вид битрейта : Постоянный
Битрейт : 640 Кбит/сек
Каналы : 6 каналов
Расположение каналов : Front: L C R, Side: L R, LFE
Частота : 48,0 КГц
Битовая глубина : 16 бит
Метод сжатия : С потерями
Размер потока : 487 Мбайт (8%)
Заголовок : Оригинал
Язык : English
Default : Нет
Forced : Нет

Текст #1
Идентификатор : 4
Формат : UTF-8
Идентификатор кодека : S_TEXT/UTF8
Идентификатор кодека/Информация : UTF-8 Plain Text
Заголовок : Forced
Язык : Russian
Default : Да
Forced : Да

Текст #2
Идентификатор : 5
Формат : UTF-8
Идентификатор кодека : S_TEXT/UTF8
Идентификатор кодека/Информация : UTF-8 Plain Text
Заголовок : Full
Язык : Russian
Default : Нет
Forced : Нет

Текст #3
Идентификатор : 6
Формат : UTF-8
Идентификатор кодека : S_TEXT/UTF8
Идентификатор кодека/Информация : UTF-8 Plain Text
Заголовок : Full
Язык : English
Default : Нет
Forced : Нет

Меню
00:00:00.000 : :Chapter 1
00:04:39.404 : :Chapter 2
00:10:29.128 : :Chapter 3
00:20:36.526 : :Chapter 4
00:26:19.578 : :Chapter 5
00:31:17.000 : :Chapter 6
00:39:13.184 : :Chapter 7
00:45:44.408 : :Chapter 8
00:52:29.896 : :Chapter 9
00:57:13.596 : :Chapter 10
01:05:02.481 : :Chapter 11
01:13:19.186 : :Chapter 12
01:17:47.829 : :Chapter 13
01:25:33.169 : :Chapter 14
01:36:34.288 : :Chapter 15
01:43:03.635 : :Chapter 16
загрузка...
Правила, инструкции, FAQ!!!
Торрент  Добавлен [08 янв 2013, 19:20] Скачать торрент
Скачать торрент
[ Размер 29.24 КБ / Просмотров 13 ]

Статус
Проверен 
 
Размер  5.76 ГБ
Приватный: Нет (DHT включён)
.torrent скачан  45
Как залить торрент? | Как скачать Torrent? | Как смотреть и слушать онлайн?  


     Отправить личное сообщение
   
Страница 1 из 1
Показать сообщения за:  Поле сортировки  
Начать новую тему Ответить на тему

   Похожие торренты   Автор   Ответы   Просмотры   Последнее сообщение 
В этой теме нет новых непрочитанных сообщений. Скачать торрент Проверен Хаос / Chaos (2005) BDRip 720p | D, P2, A

в форуме 720p | 1080p, Размер: 3.85 ГБ, Здоровье: 100%

Anonymous

0
62|21

43
141

26 мар 2015, 21:16

Anonymous Перейти к последнему сообщению

В этой теме нет новых непрочитанных сообщений. Скачать торрент Проверен Версальский роман: Небольшой хаос / A Little Chaos (2014) WEB-DL 1080p | iTunes

в форуме 720p | 1080p, Размер: 4.23 ГБ, Здоровье: 100%

Гость

0
570|463

89
202

17 авг 2015, 23:18

Гость Перейти к последнему сообщению

В этой теме нет новых непрочитанных сообщений. Скачать торрент Хаос / Chaos [2005 г., Боевик / Детектив / Драма / Триллер, DVDRip]

в форуме Боевики, Размер: 1.37 ГБ, Здоровье: 100%

Anonymous

0
5|1

44
0

10 фев 2014, 13:05

Anonymous Перейти к последнему сообщению

В этой теме нет новых непрочитанных сообщений. Скачать торрент Проверен Phil Hine / Фил Хайн - Prime Chaos: Adventures in Chaos Magic / Первичный Хаос: Приключения в Магии Хаоса [2006, DOC / PDF, ENG]

в форуме Эзотерика, гадания, магия, фен-шуй, Размер: 2.23 МБ, Здоровье: 100%

Anonymous

0
22|0

12
1

28 авг 2016, 22:07

Anonymous Перейти к последнему сообщению

В этой теме нет новых непрочитанных сообщений. Скачать торрент Проверен Phil Hine / Фил Хайн - Condensed Chaos: An Introduction to Chaos Magic / Сжатый Хаос: введение в Магию Хаоса [1996, PDF, ENG / RUS]

в форуме Эзотерика, гадания, магия, фен-шуй, Размер: 34.94 МБ, Здоровье: 100%

Anonymous

0
28|0

3
1

28 авг 2016, 22:14

Anonymous Перейти к последнему сообщению



Сейчас этот форум просматривают: нет зарегистрированных пользователей и гости: 1


Вы не можете начинать темы
Вы не можете отвечать на сообщения
Вы не можете редактировать свои сообщения
Вы не можете удалять свои сообщения
Вы не можете добавлять вложения

Перейти:  

!ВНИМАНИЕ!
 Ресурс не предоставляет электронные версии произведений, а занимается лишь коллекционированием и каталогизацией ссылок, присылаемых и публикуемых на форуме нашими читателями. Если вы являетесь правообладателем какого-либо представленного материала и не желаете чтобы ссылка на него находилась в нашем каталоге, свяжитесь с нами и мы незамедлительно удалим её. Файлы для обмена на трекере предоставлены пользователями сайта, и администрация не несёт ответственности за их содержание. Просьба не заливать файлы, защищенные авторскими правами, а также файлы нелегального содержания!