На всех торрентах на трекере установлена скидка на скачивание в размере 100 процентов(а).
 Возможность скачивания торрента НЕ зависит от ограничений при низком ратио, низком аплоаде, требуемом ратио или требуемом аплоаде.


Начать новую тему Ответить на тему
Статистика раздачи
Размер: 7.8 ГБ | Добавлен: 17 апр 2014, 17:40 | Скачали: 254
Сидеров: 21  [0 байт/сек]    Личеров: 4  [0 байт/сек]
Пред. тема | След. тема 

Автор
Сообщение

СообщениеДобавлено: 17 апр 2014, 17:40 

Вкратце:
Из-за плохой успеваемости в школе родители отправляют 14-летнюю Мику на всё лето на ферму к строгой бабушке. Однако там помимо сидения над книжками у неё неожиданно находится другое занятие. В отдалённом амбаре она находит дикого жеребца по имени Восточный ветер. Никто на ферме не в состоянии приручить его. Как по волшебству чувствующая привязанность к лошади Мика однажды ночью прокрадывается в амбар. Так начинается их необычная дружба. Сможет ли она вопреки всему укротить Восточный ветер?


Название: Восточный ветер
Оригинальное название: Ostwind - Zusammen sind wir frei
Год выпуска: 2013
Жанр: семейный
Режиссер: Катя фон Гарнье

В ролях: Детлев Бук, Корнелия Фробесс, Ханна Хёппнер, Нина Кронягер, Марвин Линке, Тило Прюкнер, Мартин Тон, Юрген Фогель





Выпущено: Германия
Продолжительность: 01:45:30
Озвучивание:
Любительское (двухголосое) [datynet & Selena]
Любительское (одноголосое) [PashaUp]


Формат: MKV
Качество: BDRip 1080p [EXQUiSiTE]
Видео: 8361 kb/s, 1920x1040
Аудио:
Russian [datynet & Selena] / [PashaUp]: AC3, 256 kb/s (2 ch)
German: DTS, 1510 kb/s (6 ch)
Субтитры: Russian [mig_88], English
Дополнительно: Сохранены оригинальные чаптеры как на Blu-Ray

Скачать: Сэмпл

Релиз группы:




Общее
Ostwind.2013.Blu.Ray.1080p.CINEMANIA.mkv
Формат : Matroska
Версия формата : Version 4 / Version 2
Размер файла : 7,80 Гбайт
Продолжительность : 1 ч. 45 м.
Общий поток : 10,6 Мбит/сек
Название фильма : Release Group CINEMANIA
Дата кодирования : UTC 2014-04-17 13:23:43
Программа кодирования : mkvmerge v6.8.0 ('Theme for Great Cities') 64bit built on Mar 2 2014 21:34:26
Библиотека кодирования : libebml v1.3.0 + libmatroska v1.4.1

Видео
Идентификатор : 1
Формат : AVC
Формат/Информация : Advanced Video Codec
Профиль формата : High@L4.1
Параметр CABAC формата : Да
Параметр ReFrames формата : 4 кадра
Идентификатор кодека : V_MPEG4/ISO/AVC
Продолжительность : 1 ч. 45 м.
Битрейт : 8356 Кбит/сек
Ширина : 1920 пикселей
Высота : 1040 пикселей
Соотношение сторон : 1,85:1
Режим частоты кадров : Постоянный
Частота кадров : 24,000 кадра/сек
Цветовое пространство : YUV
Субдискретизация насыщенности : 4:2:0
Битовая глубина : 8 бит
Тип развёртки : Прогрессивная
Бит/(Пиксели*Кадры) : 0.174
Размер потока : 6,16 Гбайт (79%)
Заголовок : Release Group CINEMANIA
Библиотека кодирования : x264 core 140 r2377 1ca7bb9
Настройки программы : cabac=1 / ref=4 / deblock=1:-1:-1 / analyse=0x3:0x133 / me=umh / subme=7 / psy=1 / psy_rd=1.00:0.15 / mixed_ref=1 / me_range=16 / chroma_me=1 / trellis=1 / 8x8dct=1 / cqm=0 / deadzone=21,11 / fast_pskip=0 / chroma_qp_offset=-3 / threads=18 / lookahead_threads=3 / sliced_threads=0 / nr=0 / decimate=1 / interlaced=0 / bluray_compat=0 / constrained_intra=0 / bframes=3 / b_pyramid=2 / b_adapt=1 / b_bias=0 / direct=3 / weightb=1 / open_gop=0 / weightp=2 / keyint=240 / keyint_min=24 / scenecut=40 / intra_refresh=0 / rc_lookahead=40 / rc=crf / mbtree=1 / crf=20.0 / qcomp=0.60 / qpmin=10 / qpmax=51 / qpstep=4 / ip_ratio=1.40 / aq=1:1.00
Язык : English
Default : Да
Forced : Нет

Аудио #1
Идентификатор : 2
Формат : AC-3
Формат/Информация : Audio Coding 3
Расширение режима : CM (complete main)
Параметр Endianness формата : Big
Идентификатор кодека : A_AC3
Продолжительность : 1 ч. 45 м.
Вид битрейта : Постоянный
Битрейт : 256 Кбит/сек
Каналы : 2 канала
Расположение каналов : Front: L R
Частота : 44,1 КГц
Битовая глубина : 16 бит
Метод сжатия : С потерями
Размер потока : 193 Мбайт (2%)
Заголовок : datynet & Selena
Язык : Russian
Default : Да
Forced : Да

Аудио #2
Идентификатор : 3
Формат : AC-3
Формат/Информация : Audio Coding 3
Расширение режима : CM (complete main)
Параметр Endianness формата : Big
Идентификатор кодека : A_AC3
Продолжительность : 1 ч. 45 м.
Вид битрейта : Постоянный
Битрейт : 256 Кбит/сек
Каналы : 2 канала
Расположение каналов : Front: L R
Частота : 44,1 КГц
Битовая глубина : 16 бит
Метод сжатия : С потерями
Размер потока : 193 Мбайт (2%)
Заголовок : Pashaup
Язык : Russian
Default : Нет
Forced : Нет

Аудио #3
Идентификатор : 4
Формат : DTS
Формат/Информация : Digital Theater Systems
Режим : 16
Параметр Endianness формата : Big
Идентификатор кодека : A_DTS
Продолжительность : 1 ч. 45 м.
Вид битрейта : Постоянный
Битрейт : 1509 Кбит/сек
Каналы : 6 каналов
Расположение каналов : Front: L C R, Side: L R, LFE
Частота : 48,0 КГц
Битовая глубина : 24 бит
Метод сжатия : С потерями
Размер потока : 1,11 Гбайт (14%)
Язык : German
Default : Нет
Forced : Нет

Текст #1
Идентификатор : 5
Формат : UTF-8
Идентификатор кодека : S_TEXT/UTF8
Идентификатор кодека/Информация : UTF-8 Plain Text
Заголовок : mig_88
Язык : Russian
Default : Нет
Forced : Нет

Текст #2
Идентификатор : 6
Формат : UTF-8
Идентификатор кодека : S_TEXT/UTF8
Идентификатор кодека/Информация : UTF-8 Plain Text
Язык : English
Default : Нет
Forced : Нет

Меню
00:00:00.000 : en:00:00:00.000
00:05:40.833 : en:00:05:40.833
00:11:08.292 : en:00:11:08.292
00:17:12.917 : en:00:17:12.917
00:22:34.958 : en:00:22:34.958
00:28:08.792 : en:00:28:08.792
00:34:10.625 : en:00:34:10.625
00:38:38.333 : en:00:38:38.333
00:44:53.333 : en:00:44:53.333
00:50:01.583 : en:00:50:01.583
00:56:06.125 : en:00:56:06.125
01:01:09.292 : en:01:01:09.292
01:06:29.250 : en:01:06:29.250
01:11:34.542 : en:01:11:34.542
01:17:01.167 : en:01:17:01.167
01:22:37.375 : en:01:22:37.375
01:27:42.750 : en:01:27:42.750
01:32:58.417 : en:01:32:58.417
01:37:51.458 : en:01:37:51.458
01:40:27.542 : en:01:40:27.542
загрузка...
Правила, инструкции, FAQ!!!
Торрент  Добавлен [17 апр 2014, 17:40] Скачать торрент
Скачать торрент
[ Размер 39.58 КБ / Просмотров 11 ]

Статус  
 
Размер  7.8 ГБ
Приватный: Нет (DHT включён)
.torrent скачан  254
Как залить торрент? | Как скачать Torrent? | Как смотреть и слушать онлайн?  


     Отправить личное сообщение
   
Страница 1 из 1
Показать сообщения за:  Поле сортировки  
Начать новую тему Ответить на тему

   Похожие торренты   Автор   Ответы   Просмотры   Последнее сообщение 
В этой теме нет новых непрочитанных сообщений. Скачать торрент Восточный ветер / Ostwind - Zusammen sind wir frei (2013) HDRip | L1

в форуме Детское, Семейное кино, Размер: 1.39 ГБ, Здоровье: 0%

Anonymous

0
0|0

54
0

17 мар 2014, 17:41

Anonymous Перейти к последнему сообщению

В этой теме нет новых непрочитанных сообщений. Скачать торрент Проверен [iPad] Восточный ветер / Ostwind - Zusammen sind wir frei (Катя фон Гарнье / Katja von Garnier ) [2013, Германия, Семейный, HDRip, SD (576p)] DVO + Original + sub (rus, eng)

в форуме Фильмы для iPod, iPhone, iPad, Размер: 1.83 ГБ, Здоровье: 100%

Гость

0
16|5

14
0

14 май 2015, 00:20

Гость Перейти к последнему сообщению

В этой теме нет новых непрочитанных сообщений. Скачать торрент Проверен Восточный ветер 2 / Ostwind 2 (2015) HDRip | ViruseProject

в форуме Драмы, Мелодрамы, Размер: 1.47 ГБ, Здоровье: 100%

Гость

0
5|0

94
1

18 фев 2016, 20:14

Гость Перейти к последнему сообщению

В этой теме нет новых непрочитанных сообщений. Скачать торрент Проверен Абдуллаев Чингиз - Восточный ветер [Телегина Татьяна, 2012, 96 kbps, MP3]

в форуме Детектив и Боевики, Размер: 356.47 МБ, Здоровье: 0%

Anonymous

0
0|0

8
0

04 май 2016, 22:04

Anonymous Перейти к последнему сообщению

В этой теме нет новых непрочитанных сообщений. Скачать торрент Проверен (Rock/Folk Rock) Хельга Восточный Ветер и группа Ветры Времен - Не оставляй меня в темноте - 2010, MP3, 192 kbps

в форуме Русский Рок, Размер: 59.1 МБ, Здоровье: 100%

Anonymous

0
17|0

2
0

22 авг 2016, 11:03

Anonymous Перейти к последнему сообщению



Сейчас этот форум просматривают: нет зарегистрированных пользователей и гости: 2


Вы не можете начинать темы
Вы не можете отвечать на сообщения
Вы не можете редактировать свои сообщения
Вы не можете удалять свои сообщения
Вы не можете добавлять вложения

Перейти:  

!ВНИМАНИЕ!
 Ресурс не предоставляет электронные версии произведений, а занимается лишь коллекционированием и каталогизацией ссылок, присылаемых и публикуемых на форуме нашими читателями. Если вы являетесь правообладателем какого-либо представленного материала и не желаете чтобы ссылка на него находилась в нашем каталоге, свяжитесь с нами и мы незамедлительно удалим её. Файлы для обмена на трекере предоставлены пользователями сайта, и администрация не несёт ответственности за их содержание. Просьба не заливать файлы, защищенные авторскими правами, а также файлы нелегального содержания!