На всех торрентах на трекере установлена скидка на скачивание в размере 100 процентов(а).
 Возможность скачивания торрента НЕ зависит от ограничений при низком ратио, низком аплоаде, требуемом ратио или требуемом аплоаде.


Начать новую тему Ответить на тему
Статистика раздачи
Размер: 7.37 ГБ | Добавлен: 17 апр 2014, 00:34 | Скачали: 0
Сидеров: 0  [0 байт/сек]    Личеров: 0  [0 байт/сек]
Пред. тема | След. тема 

Автор
Сообщение

СообщениеДобавлено: 17 апр 2014, 00:34 

Красное небо / Red Sky (2014) BDRip

Год выпуска: 2014
Производство: США, Aldamisa Entertainment
Жанр: Боевик
Перевод: Двухголосый закадровый, любительский (datynet, selena)
Субтитры: Отсутствуют

Режиссер: Марио Ван Пиблз

Продюсер: Сергей Беспалов, Дмитрий Гузеев, Рэнди Аррингтон
Актеры: Рэйчел Ли Кук, Кэм Жиганде, Шэйн Уэст, Билл Пуллман, Брайан Краузе, Джейсон Грей-Стенфорд, Дж.С. Часез, Джейсон-Шейн Скотт, Кайл Т. Хеффнер, Мария Гузеева

Описание фильма:
Разжалованному пилоту истребителя, Бутчу Мастерсу, придется преодолеть немалые сложности, чтобы очистить свою репутацию…

Дата мировой премьеры: 12 марта 2014 (США)
Релиз от:

Продолжительность: 01:47:43
Качество видео: BDRip [profile-LQ]

Видеокодек: MPEG-4 AVC/H.264
Битрейт видео: 7640 Кбит/сек
Размер кадра: 1920x808
Аудио:
1. Русский: AC3, 6 ch, 448 Кбит/с (DVO)
2. Английский: DTS, 6 ch, 1510 Кбит/с
Общее
Уникальный идентификатор : 242597355043931396275647286031919037752 (0xB6828D11AAB782ACAAFD15FCDB873D38)
Полное имя : \Красное.небо-Red Sky.2014.BDRip.NNM-CLUB.mkv
Формат : Matroska
Версия формата : Version 2
Размер файла : 7,37 Гбайт
Продолжительность : 1 ч. 47 м.
Общий поток : 9792 Кбит/сек
Название фильма : Красное.небо-Red Sky.2014.BDRip.NNM-CLUB
Дата кодирования : UTC 2014-04-15 04:57:42
Программа кодирования : mkvmerge v5.8.0 ('No Sleep / Pillow') built on Sep 2 2012 15:37:04
Библиотека кодирования : libebml v1.2.3 + libmatroska v1.3.0

Видео
Идентификатор : 1
Формат : AVC
Формат/Информация : Advanced Video Codec
Профиль формата :
Параметр CABAC формата : Да
Параметр ReFrames формата : 5 кадров
Идентификатор кодека : V_MPEG4/ISO/AVC
Продолжительность : 1 ч. 47 м.
Битрейт : 7640 Кбит/сек
Ширина : 1920 пикселей
Высота : 808 пикселей
Соотношение сторон : 2,40:1
Режим частоты кадров : Постоянный
Частота кадров : 23,976 кадра/сек
Цветовое пространство : YUV
Субдискретизация насыщенности : 4:2:0
Битовая глубина : 8 бит
Тип развёртки : Прогрессивная
Бит/(Пиксели*Кадры) : 0.205
Размер потока : 5,75 Гбайт (78%)
Заголовок : Красное.небо-Red Sky.2014.BDRip.NNM-CLUB
Библиотека кодирования : x264 core 140 r2377 1ca7bb9
Настройки программы : cabac=1 / ref=5 / deblock=1:-1:-1 / analyse=0x3:0x133 / me=umh / subme=7 / psy=1 / psy_rd=1.00:0.15 / mixed_ref=1 / me_range=16 / chroma_me=1 / trellis=1 / 8x8dct=1 / cqm=0 / deadzone=21,11 / fast_pskip=0 / chroma_qp_offset=-3 / threads=12 / lookahead_threads=2 / sliced_threads=0 / nr=0 / decimate=1 / interlaced=0 / bluray_compat=0 / constrained_intra=0 / bframes=3 / b_pyramid=2 / b_adapt=1 / b_bias=0 / direct=1 / weightb=1 / open_gop=0 / weightp=2 / keyint=250 / keyint_min=23 / scenecut=40 / intra_refresh=0 / rc_lookahead=40 / rc=crf / mbtree=1 / crf=20.0 / qcomp=0.60 / qpmin=0 / qpmax=69 / qpstep=4 / ip_ratio=1.40 / aq=1:1.00
Default : Да
Forced : Нет

Аудио #1
Идентификатор : 2
Формат : AC-3
Формат/Информация : Audio Coding 3
Расширение режима : CM (complete main)
Параметр Endianness формата : Big
Идентификатор кодека : A_AC3
Продолжительность : 1 ч. 47 м.
Вид битрейта : Постоянный
Битрейт : 448 Кбит/сек
Каналы : 6 каналов
Расположение каналов : Front: L C R, Side: L R, LFE
Частота : 48,0 КГц
Битовая глубина : 16 бит
Метод сжатия : С потерями
Размер потока : 345 Мбайт (5%)
Заголовок : DVO [datynet и selena]
Язык : Russian
Default : Нет
Forced : Нет

Аудио #2
Идентификатор : 3
Формат : DTS
Формат/Информация : Digital Theater Systems
Режим : 16
Параметр Endianness формата : Big
Идентификатор кодека : A_DTS
Продолжительность : 1 ч. 47 м.
Вид битрейта : Постоянный
Битрейт : 1509 Кбит/сек
Каналы : 6 каналов
Расположение каналов : Front: L C R, Side: L R, LFE
Частота : 48,0 КГц
Битовая глубина : 16 бит
Метод сжатия : С потерями
Размер потока : 1,14 Гбайт (15%)
Язык : English
Default : Нет
Forced : Нет

Меню
00:00:00.000 : en:00:00:00.000
00:13:38.526 : en:00:13:38.526
00:20:12.503 : en:00:20:12.503
00:28:01.388 : en:00:28:01.388
00:36:12.128 : en:00:36:12.128
00:47:46.489 : en:00:47:46.489
00:57:23.815 : en:00:57:23.815
01:08:48.249 : en:01:08:48.249
01:15:41.829 : en:01:15:41.829
01:24:37.990 : en:01:24:37.990
01:38:45.461 : en:01:38:45.461
01:43:22.863 : en:01:43:22.863
[center]Скриншоты:




загрузка...
Правила, инструкции, FAQ!!!
Торрент  Добавлен [17 апр 2014, 00:34] Скачать торрент
Скачать торрент
[ Размер 37.56 КБ / Просмотров 4 ]

Статус  
 
Размер  7.37 ГБ
Приватный: Нет (DHT включён)
.torrent скачан  0
Как залить торрент? | Как скачать Torrent? | Как смотреть и слушать онлайн?  


     Отправить личное сообщение
   
Страница 1 из 1
Показать сообщения за:  Поле сортировки  
Начать новую тему Ответить на тему

   Похожие торренты   Автор   Ответы   Просмотры   Последнее сообщение 
В этой теме нет новых непрочитанных сообщений. Скачать торрент Красное небо / Red Sky (2014) HDRip | L2

в форуме Боевики, Размер: 1.44 ГБ, Здоровье: 100%

Anonymous

0
50|2

42
1359

19 мар 2014, 20:03

Anonymous Перейти к последнему сообщению

В этой теме нет новых непрочитанных сообщений. Скачать торрент Мне бы в небо / Up in the Air (2009) BDRip 1080p

в форуме 720p | 1080p, Размер: 7.75 ГБ, Здоровье: 100%

Anonymous

0
11|0

44
162

26 мар 2014, 16:05

Anonymous Перейти к последнему сообщению

В этой теме нет новых непрочитанных сообщений. Скачать торрент Проверен Nebo FM (Небо FM) - Радиоволна [2011, soft rock/ pop-punk/power-pop, HDCam 1080p]

в форуме Концерты (HD-Video), Размер: 642.08 МБ, Здоровье: 0%

Anonymous

0
0|0

0
0

23 окт 2016, 10:25

Anonymous Перейти к последнему сообщению

В этой теме нет новых непрочитанных сообщений. Скачать торрент Мне бы в небо / Up in the Air (2009) BDRip-AVC

в форуме 720p | 1080p, Размер: 2.18 ГБ, Здоровье: 0%

Anonymous

0
0|0

36
0

09 янв 2014, 00:35

Anonymous Перейти к последнему сообщению

В этой теме нет новых непрочитанных сообщений. Скачать торрент Проверен Все красное - Иоанна Хмелевская / Irena-Barbara-Joanna Chmielewska - Кровавая месть [2014, PDF/DjVu, RUS]

в форуме Детективы и Боевики, Размер: 23.61 МБ, Здоровье: 0%

Anonymous

0
0|0

4
0

08 сен 2016, 20:42

Anonymous Перейти к последнему сообщению



Сейчас этот форум просматривают: нет зарегистрированных пользователей и гости: 3


Вы не можете начинать темы
Вы не можете отвечать на сообщения
Вы не можете редактировать свои сообщения
Вы не можете удалять свои сообщения
Вы не можете добавлять вложения

Перейти:  

!ВНИМАНИЕ!
 Ресурс не предоставляет электронные версии произведений, а занимается лишь коллекционированием и каталогизацией ссылок, присылаемых и публикуемых на форуме нашими читателями. Если вы являетесь правообладателем какого-либо представленного материала и не желаете чтобы ссылка на него находилась в нашем каталоге, свяжитесь с нами и мы незамедлительно удалим её. Файлы для обмена на трекере предоставлены пользователями сайта, и администрация не несёт ответственности за их содержание. Просьба не заливать файлы, защищенные авторскими правами, а также файлы нелегального содержания!