На всех торрентах на трекере установлена скидка на скачивание в размере 100 процентов(а).
 Возможность скачивания торрента НЕ зависит от ограничений при низком ратио, низком аплоаде, требуемом ратио или требуемом аплоаде.


Начать новую тему Ответить на тему
Статистика раздачи
Размер: 5.33 ГБ | Добавлен: 14 апр 2014, 22:19 | Скачали: 1
Сидеров: 0  [0 байт/сек]    Личеров: 0  [0 байт/сек]
Пред. тема | След. тема 

Автор
Сообщение

СообщениеДобавлено: 14 апр 2014, 22:19 

Название: Честь дракона 2
Оригинальное название: The Protector 2 / Tom yum goong 2
Год выхода: 2013
Жанр: боевик
Режиссер: Прачья Пинкаю

В ролях: Тони Джа, Маррезе Крамп, Йанин Висмитананда, Винс Макилинг, Уджал Тхапа, Эдди Руис, Эдгар Варгас, Джон Данг, Джавед Эль Берни, Рэйден Интегра

О фильме:
В жизни Кхама приходит пора новых увлекательных «приключений»: не успели еще австралийские мафиози оправиться от удара, который нанес по ним бедный тайский паренек, вполне способный в одиночку выиграть войну, как на горизонте показались другие преступники. Неизвестный мастер боевых искусств жестоко убил Сучарта – владельца слоновьего заповедника.

Убийство было совершено необычным способом – преступник нанес роковые удары по жизненно важным точкам – а последним Сучарта видел живым Кхам, так что именно он становится первым и пока что единственным подозреваемым в этом убийстве. По его следу пускается полиция и пылающие жаждой мести племянницы убитого, однако молодому человеку помогает агент Интерпола, присланный из Сиднея. Теперь перед Кхамом стоят сразу две важные задачи: во-первых, найти слона, который был похищен после убийства Сучарта, а во-вторых, найти убийцу самого владельца заповедника и таким образом очистить от клеветы свое собственное имя.



Выпущено: Таиланд
Продолжительность: 01:44:43
Озвучивание: Любительское (одноголосое) [ZelesK]

Формат: MKV
Качество: BDRip 720p [PHD]
Видео: 5181 kb/s, 1280х544
Аудио: Russian: AC3, 448 kb/s (6 ch) / Thai: DTS, 1510 kb/s (6 ch)
Субтитры: English / Thai (hard sub)
Дополнительно: Сохранены оригинальные чаптеры как на Blu-Ray

Скачать: Сэмпл

Релиз группы:




Общее
The.Protector.2.2013.Blu.Ray.720p.CINEMANIA.mkv
Формат : Matroska
Версия формата : Version 4 / Version 2
Размер файла : 5,33 Гбайт
Продолжительность : 1 ч. 44 м.
Общий поток : 7283 Кбит/сек
Название фильма : Release Group CINEMANIA
Дата кодирования : UTC 2014-04-14 18:28:28
Программа кодирования : mkvmerge v6.8.0 ('Theme for Great Cities') 64bit built on Mar 2 2014 21:34:26
Библиотека кодирования : libebml v1.3.0 + libmatroska v1.4.1

Видео
Идентификатор : 1
Формат : AVC
Формат/Информация : Advanced Video Codec
Профиль формата : High@L4.1
Параметр CABAC формата : Да
Параметр ReFrames формата : 5 кадров
Идентификатор кодека : V_MPEG4/ISO/AVC
Продолжительность : 1 ч. 44 м.
Битрейт : 5181 Кбит/сек
Ширина : 1280 пикселей
Высота : 544 пикселя
Соотношение сторон : 2,35:1
Режим частоты кадров : Постоянный
Частота кадров : 23,976 кадра/сек
Цветовое пространство : YUV
Субдискретизация насыщенности : 4:2:0
Битовая глубина : 8 бит
Тип развёртки : Прогрессивная
Бит/(Пиксели*Кадры) : 0.310
Размер потока : 3,79 Гбайт (71%)
Заголовок : Release Group CINEMANIA
Язык : English
Default : Да
Forced : Нет

Аудио #1
Идентификатор : 2
Формат : AC-3
Формат/Информация : Audio Coding 3
Расширение режима : CM (complete main)
Параметр Endianness формата : Big
Идентификатор кодека : A_AC3
Продолжительность : 1 ч. 44 м.
Вид битрейта : Постоянный
Битрейт : 448 Кбит/сек
Каналы : 6 каналов
Расположение каналов : Front: L C R, Side: L R, LFE
Частота : 48,0 КГц
Битовая глубина : 16 бит
Метод сжатия : С потерями
Размер потока : 336 Мбайт (6%)
Заголовок : ZelesK
Язык : Russian
Default : Да
Forced : Да

Аудио #2
Идентификатор : 3
Формат : DTS
Формат/Информация : Digital Theater Systems
Режим : 16
Параметр Endianness формата : Big
Идентификатор кодека : A_DTS
Продолжительность : 1 ч. 44 м.
Вид битрейта : Постоянный
Битрейт : 1509 Кбит/сек
Каналы : 6 каналов
Расположение каналов : Front: L C R, Side: L R, LFE
Частота : 48,0 КГц
Битовая глубина : 24 бит
Метод сжатия : С потерями
Размер потока : 1,10 Гбайт (21%)
Язык : Thai
Default : Нет
Forced : Нет

Меню
00:00:00.000 : en:00:00:00.000
00:09:22.937 : en:00:09:22.937
00:19:15.488 : en:00:19:15.488
00:28:42.971 : en:00:28:42.971
00:36:17.759 : en:00:36:17.759
00:45:52.249 : en:00:45:52.249
00:54:59.505 : en:00:54:59.505
01:02:29.162 : en:01:02:29.162
01:10:47.034 : en:01:10:47.034
01:20:08.721 : en:01:20:08.721
01:29:43.920 : en:01:29:43.920
01:39:40.725 : en:01:39:40.725
загрузка...
Правила, инструкции, FAQ!!!
Торрент  Добавлен [14 апр 2014, 22:19] Скачать торрент
Скачать торрент
[ Размер 27.2 КБ / Просмотров 9 ]

Статус  
 
Размер  5.33 ГБ
Приватный: Нет (DHT включён)
.torrent скачан  1
Как залить торрент? | Как скачать Torrent? | Как смотреть и слушать онлайн?  


     Отправить личное сообщение
   
Страница 1 из 1
Показать сообщения за:  Поле сортировки  
Начать новую тему Ответить на тему

   Похожие торренты   Автор   Ответы   Просмотры   Последнее сообщение 
В этой теме нет новых непрочитанных сообщений. Скачать торрент Честь дракона 2 / Tom yum goong 2 (2013) DVDRip

в форуме Боевики, Размер: 701.26 МБ, Здоровье: 100%

Anonymous

0
12|4

53
9

19 янв 2014, 22:13

Anonymous Перейти к последнему сообщению

В этой теме нет новых непрочитанных сообщений. Скачать торрент Честь дракона 2 / Tom yum goong 2 (2013) DVDRip | L1

в форуме Боевики, Размер: 1.37 ГБ, Здоровье: 100%

Anonymous

0
1|1

52
1

20 янв 2014, 06:21

Anonymous Перейти к последнему сообщению

В этой теме нет новых непрочитанных сообщений. Скачать торрент Проверен Наложница / The Concubine / Hoo-goong: Je-wang-eui cheob (2012) BDRip-AVC | L2

в форуме Драмы, Мелодрамы, Размер: 2.27 ГБ, Здоровье: 100%

Anonymous

0
24|6

25
472

11 ноя 2014, 10:24

Anonymous Перейти к последнему сообщению

В этой теме нет новых непрочитанных сообщений. Скачать торрент Проверен [iPad] Девушка с татуировкой дракона / Man som hatar kvinnor (Нильс Арден Оплев / Niels Arden Oplev) [2009, триллер, драма, криминал, BDRip, 720p]

в форуме Фильмы для iPod, iPhone, iPad, Размер: 4.25 ГБ, Здоровье: 100%

Гость

0
17|5

22
0

12 май 2015, 00:09

Гость Перейти к последнему сообщению

В этой теме нет новых непрочитанных сообщений. Скачать торрент Молодой детектив Ди: Восстание морского дракона / Young Detective Dee: Rise of the Sea Dragon (2013) WEB-DL 720p | L2

в форуме 720p | 1080p, Размер: 2.02 ГБ, Здоровье: 0%

Anonymous

0
0|0

44
0

14 дек 2013, 08:57

Anonymous Перейти к последнему сообщению



Сейчас этот форум просматривают: нет зарегистрированных пользователей и гости: 4


Вы не можете начинать темы
Вы не можете отвечать на сообщения
Вы не можете редактировать свои сообщения
Вы не можете удалять свои сообщения
Вы не можете добавлять вложения

Перейти:  

!ВНИМАНИЕ!
 Ресурс не предоставляет электронные версии произведений, а занимается лишь коллекционированием и каталогизацией ссылок, присылаемых и публикуемых на форуме нашими читателями. Если вы являетесь правообладателем какого-либо представленного материала и не желаете чтобы ссылка на него находилась в нашем каталоге, свяжитесь с нами и мы незамедлительно удалим её. Файлы для обмена на трекере предоставлены пользователями сайта, и администрация не несёт ответственности за их содержание. Просьба не заливать файлы, защищенные авторскими правами, а также файлы нелегального содержания!