На всех торрентах на трекере установлена скидка на скачивание в размере 100 процентов(а).
 Возможность скачивания торрента НЕ зависит от ограничений при низком ратио, низком аплоаде, требуемом ратио или требуемом аплоаде.


Начать новую тему Ответить на тему
Статистика раздачи
Размер: 5.4 ГБ | Добавлен: 13 апр 2014, 00:04 | Скачали: 49
Сидеров: 7  [0 байт/сек]    Личеров: 0  [0 байт/сек]
Пред. тема | След. тема 

Автор
Сообщение

СообщениеДобавлено: 13 апр 2014, 00:04 

Вкратце:
После падения на Землю радиоактивного метеорита, некоторые люди получили удивительные, сверхчеловеческие способности. Один из таких «мутантов», Ян Спаркс, совершенно не считал себя героем, но после смерти родителей, вступил в отчаянную схватку с преступностью Нью-Йорка. Вместе с очаровательной Небесной Леди они составляют великолепную пару, которая быстро очищает город от головорезов. Но однажды они встречаются с чрезвычайно опасным противником...



Название: Спаркс
Оригинальное название: Sparks
Год выпуска: 2013
Жанр: фантастика, боевик, триллер
Режиссер: Тодд Берроуз, Кристофер Фолино

В ролях: Чейз Уильямсон, Эшли Белл, Клэнси Браун, Джейк Бьюзи, Уильям Кэтт, Марина Скверсьяти, Клинт Ховард, Скотт Ринкер, Дэвид Соболев, Ларри Седар




Выпущено: США
Продолжительность: 01:38:22
Озвучивание: Любительское (двухголосое) [DeadSno & den904]
перевод на русский язык [МЕГАПЫХАРЬ & ОХ!СТУДИЯ]


Формат: MKV
Качество: BDRip 720p [SONiDO]
Видео: 4839 kb/s, 1280x720
Аудио: Russian / English: DTS, 1510 kb/s (6 ch)
Субтитры: English
Дополнительно: Сохранены оригинальные чаптеры как на Blu-ray

Скачать: Сэмпл

Релиз группы:



Общее
Sparks.2013.Blu.Ray.720p.CINEMANIA.mkv
Формат : Matroska
Версия формата : Version 4 / Version 2
Размер файла : 5,40 Гбайт
Продолжительность : 1 ч. 38 м.
Общий поток : 7848 Кбит/сек
Название фильма : Release Group CINEMANIA
Дата кодирования : UTC 2014-04-12 18:24:04
Программа кодирования : mkvmerge v6.8.0 ('Theme for Great Cities') 64bit built on Mar 2 2014 21:34:26
Библиотека кодирования : libebml v1.3.0 + libmatroska v1.4.1

Видео
Идентификатор : 1
Формат : AVC
Формат/Информация : Advanced Video Codec
Профиль формата : High@L4.1
Параметр CABAC формата : Да
Параметр ReFrames формата : 5 кадров
Идентификатор кодека : V_MPEG4/ISO/AVC
Продолжительность : 1 ч. 38 м.
Битрейт : 4839 Кбит/сек
Ширина : 1280 пикселей
Высота : 720 пикселей
Соотношение сторон : 16:9
Режим частоты кадров : Постоянный
Частота кадров : 23,976 кадра/сек
Цветовое пространство : YUV
Субдискретизация насыщенности : 4:2:0
Битовая глубина : 8 бит
Тип развёртки : Прогрессивная
Бит/(Пиксели*Кадры) : 0.219
Размер потока : 3,22 Гбайт (60%)
Заголовок : Release Group CINEMANIA
Библиотека кодирования : x264 core 142 r2409 d6b4e63
Настройки программы : cabac=1 / ref=5 / deblock=1:0:0 / analyse=0x3:0x133 / me=umh / subme=8 / psy=1 / psy_rd=1.00:0.00 / mixed_ref=1 / me_range=16 / chroma_me=1 / trellis=1 / 8x8dct=1 / cqm=0 / deadzone=21,11 / fast_pskip=0 / chroma_qp_offset=-2 / threads=12 / lookahead_threads=2 / sliced_threads=0 / nr=0 / decimate=1 / interlaced=0 / bluray_compat=0 / constrained_intra=0 / bframes=3 / b_pyramid=2 / b_adapt=2 / b_bias=0 / direct=3 / weightb=1 / open_gop=0 / weightp=2 / keyint=250 / keyint_min=23 / scenecut=40 / intra_refresh=0 / rc_lookahead=50 / rc=2pass / mbtree=1 / bitrate=4839 / ratetol=1.0 / qcomp=0.60 / qpmin=0 / qpmax=69 / qpstep=4 / cplxblur=20.0 / qblur=0.5 / ip_ratio=1.40 / aq=1:1.00
Язык : English
Default : Да
Forced : Нет

Аудио #1
Идентификатор : 2
Формат : DTS
Формат/Информация : Digital Theater Systems
Режим : 16
Параметр Endianness формата : Big
Идентификатор кодека : A_DTS
Продолжительность : 1 ч. 38 м.
Вид битрейта : Постоянный
Битрейт : 1510 Кбит/сек
Каналы : 6 каналов
Расположение каналов : Front: L C R, Side: L R, LFE
Частота : 48,0 КГц
Битовая глубина : 24 бит
Метод сжатия : С потерями
Размер потока : 1,04 Гбайт (19%)
Заголовок : Влад и Снежиночка
Язык : Russian
Default : Да
Forced : Да

Аудио #2
Идентификатор : 3
Формат : DTS
Формат/Информация : Digital Theater Systems
Режим : 16
Параметр Endianness формата : Big
Идентификатор кодека : A_DTS
Продолжительность : 1 ч. 38 м.
Вид битрейта : Постоянный
Битрейт : 1510 Кбит/сек
Каналы : 6 каналов
Расположение каналов : Front: L C R, Side: L R, LFE
Частота : 48,0 КГц
Битовая глубина : 24 бит
Метод сжатия : С потерями
Размер потока : 1,04 Гбайт (19%)
Язык : English
Default : Нет
Forced : Нет

Текст
Идентификатор : 4
Формат : UTF-8
Идентификатор кодека : S_TEXT/UTF8
Идентификатор кодека/Информация : UTF-8 Plain Text
Язык : English
Default : Нет
Forced : Нет

Меню
00:00:00.000 : en:00:00:00.000
00:19:45.476 : en:00:19:45.476
00:42:07.900 : en:00:42:07.900
01:03:00.026 : en:01:03:00.026
01:22:43.458 : en:01:22:43.458
01:33:19.844 : en:01:33:19.844
загрузка...
Правила, инструкции, FAQ!!!
Торрент  Добавлен [13 апр 2014, 00:04] Скачать торрент
Скачать торрент
[ Размер 27.59 КБ / Просмотров 5 ]

Статус  
 
Размер  5.4 ГБ
Приватный: Нет (DHT включён)
.torrent скачан  49
Как залить торрент? | Как скачать Torrent? | Как смотреть и слушать онлайн?  


     Отправить личное сообщение
   
Страница 1 из 1
Показать сообщения за:  Поле сортировки  
Начать новую тему Ответить на тему

   Похожие торренты   Автор   Ответы   Просмотры   Последнее сообщение 
В этой теме нет новых непрочитанных сообщений. Скачать торрент Спаркс / Sparks (2013) HDRip | L2

в форуме Фантастика, Фэнтези, Размер: 1.35 ГБ, Здоровье: 100%

Anonymous

0
53|2

49
477

12 апр 2014, 23:54

Anonymous Перейти к последнему сообщению

В этой теме нет новых непрочитанных сообщений. Скачать торрент Руби Спаркс / Ruby Sparks (2012) HDRip | D | Лицензия

в форуме Фантастика, Фэнтези, Размер: 1.4 ГБ, Здоровье: 100%

Anonymous

0
14|3

53
114

10 дек 2013, 09:09

Anonymous Перейти к последнему сообщению

В этой теме нет новых непрочитанных сообщений. Скачать торрент Проверен (Rock)[LP][24/192] Sparks - Introducing Sparks (US promo) - 1977, FLAC (image+.cue)

в форуме Зарубежный рок (оцифровки), Размер: 1.3 ГБ, Здоровье: 100%

Anonymous

0
2|1

6
0

27 авг 2016, 09:59

Anonymous Перейти к последнему сообщению

В этой теме нет новых непрочитанных сообщений. Скачать торрент Проверен Николас Чарльз Спаркс - Сборник книг (16 романов) [2007-2013, fb2 / pdf / rtf, Rus]

в форуме Женский роман, Размер: 99.2 МБ, Здоровье: 100%

Anonymous

0
34|28

15
0

28 авг 2016, 21:08

Anonymous Перейти к последнему сообщению

В этой теме нет новых непрочитанных сообщений. Скачать торрент Проверен (Rock, Pop-Rock) [CD] Graham Parker & The Rumour - Squeezing Out Sparks + Live Sparks - 1996, FLAC (tracks+.cue), lossless

в форуме Classic Rock & Hard Rock, Размер: 528.51 МБ, Здоровье: 100%

Anonymous

0
1|0

8
1

03 сен 2016, 13:20

Anonymous Перейти к последнему сообщению



Сейчас этот форум просматривают: нет зарегистрированных пользователей и гости: 4


Вы не можете начинать темы
Вы не можете отвечать на сообщения
Вы не можете редактировать свои сообщения
Вы не можете удалять свои сообщения
Вы не можете добавлять вложения

Перейти:  

!ВНИМАНИЕ!
 Ресурс не предоставляет электронные версии произведений, а занимается лишь коллекционированием и каталогизацией ссылок, присылаемых и публикуемых на форуме нашими читателями. Если вы являетесь правообладателем какого-либо представленного материала и не желаете чтобы ссылка на него находилась в нашем каталоге, свяжитесь с нами и мы незамедлительно удалим её. Файлы для обмена на трекере предоставлены пользователями сайта, и администрация не несёт ответственности за их содержание. Просьба не заливать файлы, защищенные авторскими правами, а также файлы нелегального содержания!