На всех торрентах на трекере установлена скидка на скачивание в размере 100 процентов(а).
 Возможность скачивания торрента НЕ зависит от ограничений при низком ратио, низком аплоаде, требуемом ратио или требуемом аплоаде.


Начать новую тему Ответить на тему
Статистика раздачи
Размер: 4.03 ГБ | Добавлен: 12 апр 2014, 23:14 | Скачали: 14
Сидеров: 4  [0 байт/сек]    Личеров: 0  [0 байт/сек]
Пред. тема | След. тема 

Автор
Сообщение

СообщениеДобавлено: 12 апр 2014, 23:14 

Название: Ошин / Осин
Оригинальное название: Oshin
Год выхода: 2013
Жанр: драма
Режиссер: Шин Тогаси
В ролях: Ая Уето, Горо Инагаки, Аяко Кобаяси, Дзицуко Ёсимура, Коконе Хамада, Гуц Исимацу, Кайоко Кишимото, Манами Игашира, Пинко Изуми, Шинносуке Мицусима

О фильме:
Юная девушка по имени Осин, видя в каких бедных условиях приходится жить её семье, решает помочь своим родителям и едет в большой город, чтобы заработать хоть немного денег. Там она устраивается работать служанкой в богатый дом. Каждый день девушке приходится много трудиться, однако, не смотря на то, что она очень скучает по своим родным, Осин понимает, что пока возвращение невозможно и продолжает старательно выполнять свои обязанности... С каждым днем девочке все труднее и труднее... Сможет ли она преодолеть все трудности выпавшие на ее хрупкие плечи и вернуться в родной Дом?



Выпущено: Япония, Китай
Продолжительность: 01:49:29
Озвучивание: Любительское (двухголосое) [DeadSno & den904]
перевод на русский язык [akira9]


Формат: AVI
Качество: BDRip 720p [WiKi]
Видео: 4430 kb/s, 1280х690
Аудио: Russian: AC3, 192 kb/s (2 ch) / Japanese: AC3, 640 kb/s (6 ch)
Субтитры: English
Дополнительно: Сохранены оригинальные чаптеры как на Blu-Ray

Скачать: Сэмпл

Релиз группы:




Общее
Oshin.2013.Blu.Ray.720p.CINEMANIA.mkv
Формат : Matroska
Версия формата : Version 4 / Version 2
Размер файла : 4,03 Гбайт
Продолжительность : 1 ч. 49 м.
Режим общего битрейта : Переменный
Общий поток : 5270 Кбит/сек
Название фильма : Release Group CINEMANIA
Дата кодирования : UTC 2014-04-12 14:18:06
Программа кодирования : mkvmerge v6.8.0 ('Theme for Great Cities') 64bit built on Mar 2 2014 21:34:26
Библиотека кодирования : libebml v1.3.0 + libmatroska v1.4.1

Видео
Идентификатор : 1
Формат : AVC
Формат/Информация : Advanced Video Codec
Профиль формата : High@L4.1
Параметр CABAC формата : Да
Параметр ReFrames формата : 9 кадров
Идентификатор кодека : V_MPEG4/ISO/AVC
Продолжительность : 1 ч. 49 м.
Вид битрейта : Переменный
Битрейт : 4430 Кбит/сек
Максимальный битрейт : 40,0 Мбит/сек
Ширина : 1280 пикселей
Высота : 690 пикселей
Соотношение сторон : 1,85:1
Режим частоты кадров : Постоянный
Частота кадров : 24,000 кадра/сек
Цветовое пространство : YUV
Субдискретизация насыщенности : 4:2:0
Битовая глубина : 8 бит
Тип развёртки : Прогрессивная
Бит/(Пиксели*Кадры) : 0.209
Размер потока : 3,31 Гбайт (82%)
Заголовок : Release Group CINEMANIA
Библиотека кодирования : x264 core 129 r2245+704+36 8e61944 tMod+MixAQ [8-bit@4:2:0 X86_64]
Настройки программы : cabac=1 / ref=9 / deblock=1:-3:-3 / analyse=0x3:0x133 / me=umh / subme=11 / psy=1 / fade_compensate=0.00 / psy_rd=1.05:0.10 / mixed_ref=1 / me_range=32 / chroma_me=1 / trellis=2 / 8x8dct=1 / cqm=0 / deadzone=21,11 / fast_pskip=0 / chroma_qp_offset=-3 / threads=18 / lookahead_threads=3 / sliced_threads=0 / nr=0 / decimate=0 / interlaced=0 / bluray_compat=0 / constrained_intra=0 / fgo=0 / bframes=8 / b_pyramid=2 / b_adapt=2 / b_bias=0 / direct=3 / weightb=1 / open_gop=0 / weightp=2 / keyint=250 / keyint_min=23 / scenecut=40 / intra_refresh=0 / rc_lookahead=80 / rc=2pass / mbtree=1 / bitrate=4430 / ratetol=1.0 / qcomp=0.70 / qpmin=0 / qpmax=69 / qpstep=4 / cplxblur=20.0 / qblur=0.5 / ip_ratio=1.40 / aq=3 / aq-strength=0.80 / aq-sensitivity=10.00 / aq-ifactor=1.00 / aq-pfactor=1.00 / aq-bfactor=1.00 / aq2
Язык : Japanese
Default : Да
Forced : Нет
Коэффициенты матрицы : BT.709

Аудио #1
Идентификатор : 2
Формат : AC-3
Формат/Информация : Audio Coding 3
Расширение режима : CM (complete main)
Параметр Endianness формата : Big
Идентификатор кодека : A_AC3
Продолжительность : 1 ч. 49 м.
Вид битрейта : Постоянный
Битрейт : 192 Кбит/сек
Каналы : 2 канала
Расположение каналов : Front: L R
Частота : 48,0 КГц
Битовая глубина : 16 бит
Метод сжатия : С потерями
Размер потока : 150 Мбайт (4%)
Заголовок : Влад и Снежиночка
Язык : Russian
Default : Да
Forced : Да

Аудио #2
Идентификатор : 3
Формат : AC-3
Формат/Информация : Audio Coding 3
Расширение режима : CM (complete main)
Параметр Endianness формата : Big
Идентификатор кодека : A_AC3
Продолжительность : 1 ч. 49 м.
Вид битрейта : Постоянный
Битрейт : 640 Кбит/сек
Каналы : 6 каналов
Расположение каналов : Front: L C R, Side: L R, LFE
Частота : 48,0 КГц
Битовая глубина : 16 бит
Метод сжатия : С потерями
Размер потока : 501 Мбайт (12%)
Язык : Japanese
Default : Нет
Forced : Нет

Текст
Идентификатор : 4
Формат : UTF-8
Идентификатор кодека : S_TEXT/UTF8
Идентификатор кодека/Информация : UTF-8 Plain Text
Язык : English
Default : Нет
Forced : Нет

Меню
00:00:00.000 : en:00:00:00.000
00:09:15.458 : en:00:09:15.458
00:17:56.166 : en:00:17:56.166
00:26:25.583 : en:00:26:25.583
00:35:10.625 : en:00:35:10.625
00:42:47.208 : en:00:42:47.208
00:55:36.125 : en:00:55:36.125
01:02:33.250 : en:01:02:33.250
01:10:53.833 : en:01:10:53.833
01:22:58.250 : en:01:22:58.250
01:32:08.083 : en:01:32:08.083
01:38:30.208 : en:01:38:30.208
загрузка...
Правила, инструкции, FAQ!!!
Торрент  Добавлен [12 апр 2014, 23:14] Скачать торрент
Скачать торрент
[ Размер 20.71 КБ / Просмотров 2 ]

Статус  
 
Размер  4.03 ГБ
Приватный: Нет (DHT включён)
.torrent скачан  14
Как залить торрент? | Как скачать Torrent? | Как смотреть и слушать онлайн?  


     Отправить личное сообщение
   
Страница 1 из 1
Показать сообщения за:  Поле сортировки  
Начать новую тему Ответить на тему

   Похожие торренты   Автор   Ответы   Просмотры   Последнее сообщение 
В этой теме нет новых непрочитанных сообщений. Скачать торрент Ошин / Осин / Oshin (2013) HDTV 720p | L2

в форуме Драмы, Мелодрамы, Размер: 2.57 ГБ, Здоровье: 0%

Anonymous

0
0|0

22
0

25 фев 2014, 08:33

Anonymous Перейти к последнему сообщению

В этой теме нет новых непрочитанных сообщений. Скачать торрент Проверен (Lo-Fi, Shoegaze, Indie Rock) [LP][16\44] DIIV - Oshin - 2012, FLAC (tracks)

в форуме Зарубежный рок (оцифровки), Размер: 245.2 МБ, Здоровье: 0%

Anonymous

0
0|0

3
0

25 авг 2016, 18:25

Anonymous Перейти к последнему сообщению

В этой теме нет новых непрочитанных сообщений. Скачать торрент Проверен Евгений Осин - Golden Hits (2010) [FLAC|Lossless]<Pop>

в форуме Отечественная музыка, Размер: 631.69 МБ, Здоровье: 50%

Гость

0
6|12

93
2

21 дек 2014, 02:02

Гость Перейти к последнему сообщению

В этой теме нет новых непрочитанных сообщений. Скачать торрент Проверен Евгений Осин - Новое и лучшее. Star Hit Звездная коллекция (2010) [FLAC|Lossless]<Pop>

в форуме Отечественная музыка, Размер: 445.97 МБ, Здоровье: 100%

Anonymous

0
32|6

95
5

21 дек 2014, 02:32

Anonymous Перейти к последнему сообщению

В этой теме нет новых непрочитанных сообщений. Скачать торрент Проверен Mylene Farmer: Timeless 2013 - Le Film (2013) BDRip 720p

в форуме Концерты (HD-Video), Размер: 4.37 ГБ, Здоровье: 100%

Anonymous

0
511|2

118
7

18 сен 2014, 20:07

Anonymous Перейти к последнему сообщению



Сейчас этот форум просматривают: нет зарегистрированных пользователей и гости: 2


Вы не можете начинать темы
Вы не можете отвечать на сообщения
Вы не можете редактировать свои сообщения
Вы не можете удалять свои сообщения
Вы не можете добавлять вложения

Перейти:  

!ВНИМАНИЕ!
 Ресурс не предоставляет электронные версии произведений, а занимается лишь коллекционированием и каталогизацией ссылок, присылаемых и публикуемых на форуме нашими читателями. Если вы являетесь правообладателем какого-либо представленного материала и не желаете чтобы ссылка на него находилась в нашем каталоге, свяжитесь с нами и мы незамедлительно удалим её. Файлы для обмена на трекере предоставлены пользователями сайта, и администрация не несёт ответственности за их содержание. Просьба не заливать файлы, защищенные авторскими правами, а также файлы нелегального содержания!