На всех торрентах на трекере установлена скидка на скачивание в размере 100 процентов(а).
 Возможность скачивания торрента НЕ зависит от ограничений при низком ратио, низком аплоаде, требуемом ратио или требуемом аплоаде.


Начать новую тему Ответить на тему
Статистика раздачи
Размер: 4.37 ГБ | Добавлен: 12 апр 2014, 23:07 | Скачали: 31
Сидеров: 5  [0 байт/сек]    Личеров: 2  [0 байт/сек]
Пред. тема | След. тема 

Автор
Сообщение

СообщениеДобавлено: 12 апр 2014, 23:07 

Вкратце: Скромный и закомплексованный повар из бара Стенли Мун безумно влюбляется в официантку и находится на грани самоубийства. Его спасает вмешательство вполне обыкновенного Джорджа Спиготта, который на самом деле ни кто иной, как дьявол собственной персоной. Он предлагает Стенли договор. В обмен на его душу, он гарантирует ему покорение красотки путем исполнения семи желаний. Но на самом деле каждое выполненное желание оборачивается катастрофой...




Страна: Великобритания
Жанр: фэнтези, мелодрама, комедия
Год выпуска: 1967
Продолжительность: 01:43:41
Перевод: Авторский (Гаврилов Андрей) + Оригинальный
Субтитры: английские.


Режиссер: Стенли Донен / Stanley Donen


В ролях: Питер Кук (George Spiggott /The Devil), Дадли Мур (Stanley Moon), Элинор Брон (Margaret), Рэкел Уэлч (Lust /Lilian Lust), Альба (Vanity), Роберт Рассел (Anger), Бэрри Хамфриз (Envy), Парнелл МакГэрри (Gluttony), Даниель Ноэль (Avarice), Ховард Гурни (Sloth), Майкл Бейтс (Inspector Clarke), Бернард Спир (Irving Moses)







Семпл


Качество: BDRip
Контейнер: MKV

Видео: AVC, 1280x484 (2.645), 5652 kbps, 24 fps, 0,380 bpp
Аудио №1: русский / AC3 / 2.0 / 48 kHz / 192 kbps
Аудио №2: английский / AC3 / 2.0 / 48 kHz / 192 kbps
Навигация по главам: есть


-----------------------------------------------------------
x264 [info]: frame I:1607 Avg QP:16.85 size: 89352
x264 [info]: frame P:76280 Avg QP:19.09 size: 39054
x264 [info]: frame B:71416 Avg QP:20.49 size: 17810
-----------------------------------------------------------
Format : Matroska
Format version : Version 2
File size : 4.37 GiB
Duration : 1h 43mn
Overall bit rate : 6 037 Kbps
Movie name : = Ослеплённый желаниями / Bedazzled BDRip 720p by SC Kosmos =
Encoded date : UTC 2014-04-11 16:09:11
Writing application : mkvmerge v3.3.0 ('Language') gebaut am Mar 24 2010 14:59:24
Writing library : libebml v0.8.0 + libmatroska v0.9.0

Video
ID : 1
Format : AVC
Format/Info : Advanced Video Codec
Format profile : High@L4.1
Format settings, CABAC : Yes
Format settings, ReFrames : 10 frames
Codec ID : V_MPEG4/ISO/AVC
Duration : 1h 43mn
Bit rate : 5 652 Kbps
Width : 1 280 pixels
Height : 484 pixels
Display aspect ratio : 2.645
Frame rate : 24.000 fps
Color space : YUV
Chroma subsampling : 4:2:0
Bit depth : 8 bits
Scan type : Progressive
Bits/(Pixel*Frame) : 0.380
Stream size : 4.01 GiB (92%)
Title : Ослеплённый желаниями / Bedazzled BDRip 720p by SC Kosmos
Writing library : x264 core 142 r2409 d6b4e63
Encoding settings : cabac=1 / ref=10 / deblock=1:-2:-3 / analyse=0x3:0x113 / me=umh / subme=11 / psy=1 / psy_rd=1.00:0.00 / mixed_ref=1 / me_range=32 / chroma_me=1 / trellis=2 / 8x8dct=1 / cqm=0 / deadzone=21,11 / fast_pskip=0 / chroma_qp_offset=-2 / threads=12 / lookahead_threads=1 / sliced_threads=0 / nr=0 / decimate=1 / interlaced=0 / bluray_compat=0 / constrained_intra=0 / bframes=10 / b_pyramid=2 / b_adapt=1 / b_bias=0 / direct=3 / weightb=1 / open_gop=0 / weightp=2 / keyint=240 / keyint_min=24 / scenecut=40 / intra_refresh=0 / rc=2pass / mbtree=0 / bitrate=5652 / ratetol=1.0 / qcomp=0.60 / qpmin=0 / qpmax=69 / qpstep=4 / cplxblur=20.0 / qblur=0.5 / ip_ratio=1.40 / pb_ratio=1.30 / aq=1:1.00
Language : English
Default : No
Forced : No

Audio #1
ID : 2
Format : AC-3
Format/Info : Audio Coding 3
Mode extension : CM (complete main)
Codec ID : A_AC3
Duration : 1h 43mn
Bit rate mode : Constant
Bit rate : 192 Kbps
Channel(s) : 2 channels
Channel positions : Front: L R
Sampling rate : 48.0 KHz
Bit depth : 16 bits
Compression mode : Lossy
Stream size : 142 MiB (3%)
Title : AVO ( Гаврилов )
Language : Russian
Default : Yes
Forced : Yes

Audio #2
ID : 3
Format : AC-3
Format/Info : Audio Coding 3
Mode extension : CM (complete main)
Codec ID : A_AC3
Duration : 1h 43mn
Bit rate mode : Constant
Bit rate : 192 Kbps
Channel(s) : 2 channels
Channel positions : Front: L R
Sampling rate : 48.0 KHz
Bit depth : 16 bits
Compression mode : Lossy
Stream size : 142 MiB (3%)
Language : English
Default : No
Forced : No

Text
ID : 4
Format : UTF-8
Codec ID : S_TEXT/UTF8
Codec ID/Info : UTF-8 Plain Text
Default : No
Forced : No

Menu
00:00:00.000 : en:00:00:00.000
00:02:13.000 : en:00:02:13.000
00:10:29.708 : en:00:10:29.708
00:20:29.167 : en:00:20:29.167
00:28:14.750 : en:00:28:14.750
00:38:17.667 : en:00:38:17.667
00:47:46.833 : en:00:47:46.833
00:54:54.625 : en:00:54:54.625
01:02:38.042 : en:01:02:38.042
01:09:58.375 : en:01:09:58.375
01:16:20.625 : en:01:16:20.625
01:23:35.458 : en:01:23:35.458
01:31:39.583 : en:01:31:39.583
01:36:43.417 : en:01:36:43.417
01:40:52.708 : en:01:40:52.708
01:42:43.417 : en:01:42:43.417







загрузка...
Правила, инструкции, FAQ!!!
Торрент  Добавлен [12 апр 2014, 23:07] Скачать торрент
Скачать торрент
[ Размер 22.38 КБ / Просмотров 7 ]

Статус  
 
Размер  4.37 ГБ
Приватный: Нет (DHT включён)
.torrent скачан  31
Как залить торрент? | Как скачать Torrent? | Как смотреть и слушать онлайн?  


     Отправить личное сообщение
   
Страница 1 из 1
Показать сообщения за:  Поле сортировки  
Начать новую тему Ответить на тему

   Похожие торренты   Автор   Ответы   Просмотры   Последнее сообщение 
В этой теме нет новых непрочитанных сообщений. Скачать торрент Проверен Осторожнее с желаниями / Careful What You Wish For (2015) BDRip [576p] iPad

в форуме Фильмы для iPod, iPhone, iPad, Размер: 1.94 ГБ, Здоровье: 100%

Anonymous

0
78|5

58
2

13 сен 2015, 01:07

Anonymous Перейти к последнему сообщению

В этой теме нет новых непрочитанных сообщений. Скачать торрент Проверен Маугли (1967-1971) BDRip 720p

в форуме Отечественные мультфильмы (HD Video), Размер: 2.23 ГБ, Здоровье: 100%

Anonymous

0
163|5

169
0

01 авг 2014, 12:50

Anonymous Перейти к последнему сообщению

В этой теме нет новых непрочитанных сообщений. Скачать торрент Проверен The Beatles - Magical Mystery Tour (1967) [2012, Rock, BDRip 720p]

в форуме Концерты (HD-Video), Размер: 2.18 ГБ, Здоровье: 100%

Anonymous

0
5|1

5
1

23 окт 2016, 15:22

Anonymous Перейти к последнему сообщению

В этой теме нет новых непрочитанных сообщений. Скачать торрент Нибелунги: Месть Кримхильды / Die Nibelungen, Teil 2 - Kriemhilds Rache (1967) BDRip 720p

в форуме 720p | 1080p, Размер: 4.37 ГБ, Здоровье: 100%

Anonymous

0
110|2

71
1

18 янв 2014, 08:08

Anonymous Перейти к последнему сообщению

В этой теме нет новых непрочитанных сообщений. Скачать торрент Проверен The Monterey Pop Music Festival, 1967 (Д.А. Пеннебейкер / D.A. Pennebaker) [1968, Rock, Pop, Folk, BDRip 720p]

в форуме Концерты (HD-Video), Размер: 7.01 ГБ, Здоровье: 100%

Anonymous

0
11|4

3
1

23 окт 2016, 14:17

Anonymous Перейти к последнему сообщению



Сейчас этот форум просматривают: нет зарегистрированных пользователей и гости: 2


Вы не можете начинать темы
Вы не можете отвечать на сообщения
Вы не можете редактировать свои сообщения
Вы не можете удалять свои сообщения
Вы не можете добавлять вложения

Перейти:  

!ВНИМАНИЕ!
 Ресурс не предоставляет электронные версии произведений, а занимается лишь коллекционированием и каталогизацией ссылок, присылаемых и публикуемых на форуме нашими читателями. Если вы являетесь правообладателем какого-либо представленного материала и не желаете чтобы ссылка на него находилась в нашем каталоге, свяжитесь с нами и мы незамедлительно удалим её. Файлы для обмена на трекере предоставлены пользователями сайта, и администрация не несёт ответственности за их содержание. Просьба не заливать файлы, защищенные авторскими правами, а также файлы нелегального содержания!