На всех торрентах на трекере установлена скидка на скачивание в размере 100 процентов(а).
 Возможность скачивания торрента НЕ зависит от ограничений при низком ратио, низком аплоаде, требуемом ратио или требуемом аплоаде.


Начать новую тему Ответить на тему
Статистика раздачи
Размер: 4.37 ГБ | Добавлен: 07 янв 2013, 17:52 | Скачали: 0
Сидеров: 0  [0 байт/сек]    Личеров: 0  [0 байт/сек]
Пред. тема | След. тема 

Автор
Сообщение

СообщениеДобавлено: 07 янв 2013, 17:52 

Информация о фильме
Название: Красный Дракон
Оригинальное название: Red Dragon
Год выхода: 2002
Жанр: Триллер, криминал, детектив
Режиссер: Бретт Рэтнер
В ролях: Энтони Хопкинс, Эдвард Нортон, Ральф Файнс, Харви Кейтель, Эмили Уотсон, Мэри-Луиз Паркер, Филип Сеймур Хоффман, Энтони Хилд, Кен Люн, Фрэнки Фэйзон, Тайлер Патрик Джонс, Лало Шифрин, Tim Wheater, Джон Рубенстейн, Дэвид Доути, Бренда Стронг, Роберт Кертис-Браун, Mary Anne McGarry, Марк Абрахам, Вероника Де Лаурентиис, Майкл Кавано...

О фильме:
Действие этой ленты разворачивается до событий, описанных в «Молчании ягнят» и до появления Клариссы Старлинг. Мы знакомимся с человеком, поймавшим Ганнибала Лектора, - специальным агентом ФБР Уиллом Грэмом. После ареста Лектора, который едва не стоил Грэму жизни, Уилл уходит со службы в Бюро.
Однако, появление нового жуткого серийного убийцы заставляет Грэма вернуться на службу. Этот безжалостный монстр, которого пресса уже окрестила «Зубной Феей», ночами вырезает целые семейства. Теперь Уиллу нужен совет от опытного специалиста по психическим аномалиям, и он обращается за помощью к своему старому знакомому... доктору «Ганнибалу-каннибалу» Лектору!



Страна: США, Германия
Продолжительность: 02:04:26
Перевод: Дубляж


Формат: mkv
Кодек: H264
Качество: BDRip 1080p
Видео: 1920x800, 4574 Kbps, 23.976 fps
Звук: 48 kHz, AC3, 6c, 448 kbps
Субтитры: Русские, Английские





Общее
Формат : Matroska
Версия формата : Version 2
Размер файла : 4,37 Гбайт
Продолжительность : 2 ч. 4 м.
Общий поток : 5029 Кбит/сек
Название фильма : Red Dragon (2002) BDRip 1080p от Dimok
Дата кодирования : UTC 2012-03-02 10:16:10
Программа кодирования : mkvmerge v5.2.1 ('A Far Off Place') built on Jan 2 2012 23:21:10
Библиотека кодирования : libebml v1.2.3 + libmatroska v1.3.0

Видео
Идентификатор : 1
Формат : AVC
Формат/Информация : Advanced Video Codec
Профиль формата : High@L4.1
Параметр CABAC формата : Да
Параметр ReFrames формата : 5 кадров
Идентификатор кодека : V_MPEG4/ISO/AVC
Продолжительность : 2 ч. 4 м.
Битрейт : 4574 Кбит/сек
Ширина : 1920 пикселей
Высота : 800 пикселей
Соотношение сторон : 2,40:1
Частота кадров : 23,976 кадра/сек
Цветовое пространство : YUV
Субдискретизация насыщенности : 4:2:0
Битовая глубина : 8 бит
Тип развёртки : Прогрессивная
Бит/(Пиксели*Кадры) : 0.124
Размер потока : 3,90 Гбайт (89%)
Библиотека кодирования : x264 core 92 r1510 33d382a
Настройки программы : cabac=1 / ref=5 / deblock=1:0:0 / analyse=0x3:0x133 / me=umh / subme=10 / psy=1 / psy_rd=1.00:0.10 / mixed_ref=1 / me_range=32 / chroma_me=1 / trellis=2 / 8x8dct=1 / cqm=0 / deadzone=21,11 / fast_pskip=0 / chroma_qp_offset=-3 / threads=6 / sliced_threads=0 / nr=0 / decimate=1 / interlaced=0 / constrained_intra=0 / bframes=6 / b_pyramid=2 / b_adapt=2 / b_bias=0 / direct=3 / wpredb=1 / wpredp=2 / keyint=240 / keyint_min=24 / scenecut=40 / intra_refresh=0 / rc_lookahead=60 / rc=2pass / mbtree=1 / bitrate=4574 / ratetol=1.0 / qcomp=0.60 / qpmin=10 / qpmax=51 / qpstep=4 / cplxblur=20.0 / qblur=0.5 / ip_ratio=1.40 / aq=1:1.00
Язык : English

Аудио
Идентификатор : 2
Формат : AC-3
Формат/Информация : Audio Coding 3
Расширение режима : CM (complete main)
Идентификатор кодека : A_AC3
Продолжительность : 2 ч. 4 м.
Вид битрейта : Постоянный
Битрейт : 448 Кбит/сек
Каналы : 6 каналов
Расположение каналов : Front: L C R, Side: L R, LFE
Частота : 48,0 КГц
Битовая глубина : 16 бит
Метод сжатия : С потерями
Размер потока : 399 Мбайт (9%)
Заголовок : Дубляж
Язык : Russian

Текст #1
Идентификатор : 3
Формат : PGS
Режим смешивания : zlib
Идентификатор кодека : S_HDMV/PGS
Идентификатор кодека/Информация : The same subtitle format used on BDs/HD-DVDs
Язык : Russian

Текст #2
Идентификатор : 4
Формат : PGS
Режим смешивания : zlib
Идентификатор кодека : S_HDMV/PGS
Идентификатор кодека/Информация : The same subtitle format used on BDs/HD-DVDs
Язык : English
загрузка...
Правила, инструкции, FAQ!!!
Торрент  Добавлен [07 янв 2013, 17:52] Скачать торрент
Скачать торрент
[ Размер 22.27 КБ / Просмотров 10 ]

Статус
Проверен 
 
Размер  4.37 ГБ
Приватный: Нет (DHT включён)
.torrent скачан  0
Как залить торрент? | Как скачать Torrent? | Как смотреть и слушать онлайн?  


     Отправить личное сообщение
   
Страница 1 из 1
Показать сообщения за:  Поле сортировки  
Начать новую тему Ответить на тему

   Похожие торренты   Автор   Ответы   Просмотры   Последнее сообщение 
В этой теме нет новых непрочитанных сообщений. Скачать торрент Красный Дракон / Red Dragon (Бретт Рэтнер / Brett Ratner) [2002, США, Триллер, драма, детектив, BDRip] Dub

в форуме Триллеры, Размер: 1.46 ГБ, Здоровье: 0%

Anonymous

0
0|0

54
0

25 апр 2014, 08:54

Anonymous Перейти к последнему сообщению

В этой теме нет новых непрочитанных сообщений. Скачать торрент Проверен Том и Джерри: Потерянный дракон / Tom & Jerry: The Lost Dragon (2014) BDRip 1080p | P

в форуме Зарубежные мультфильмы (HD Video), Размер: 2.59 ГБ, Здоровье: 100%

Anonymous

0
60|1

171
142

06 окт 2014, 23:59

Anonymous Перейти к последнему сообщению

В этой теме нет новых непрочитанных сообщений. Скачать торрент Проверен Пит и его дракон / Pete's Dragon (2016) BDRip 720p | Лицензия

в форуме 720p | 1080p, Размер: 5.9 ГБ, Здоровье: 72%

Гость

0
880|1207

54
669

20 ноя 2016, 09:44

Гость Перейти к последнему сообщению

В этой теме нет новых непрочитанных сообщений. Скачать торрент Проверен Харрис Томас - Красный дракон [Stix37, (ЛИ), 2014 г., 80 kbps, MP3]

в форуме Детектив и Боевики, Размер: 415.77 МБ, Здоровье: 0%

Anonymous

0
0|0

1
0

20 ноя 2016, 17:26

Anonymous Перейти к последнему сообщению

В этой теме нет новых непрочитанных сообщений. Скачать торрент Проверен Харрис Томас - Красный дракон [Stix37 (ЛИ), 2014, Психологический триллер, 128 kbps], M4B

в форуме Аудиокниги (AAC, ALAC), Размер: 655.43 МБ, Здоровье: 0%

Anonymous

0
0|0

7
0

28 авг 2016, 17:11

Anonymous Перейти к последнему сообщению



Сейчас этот форум просматривают: нет зарегистрированных пользователей и гости: 1


Вы не можете начинать темы
Вы не можете отвечать на сообщения
Вы не можете редактировать свои сообщения
Вы не можете удалять свои сообщения
Вы не можете добавлять вложения

Перейти:  

!ВНИМАНИЕ!
 Ресурс не предоставляет электронные версии произведений, а занимается лишь коллекционированием и каталогизацией ссылок, присылаемых и публикуемых на форуме нашими читателями. Если вы являетесь правообладателем какого-либо представленного материала и не желаете чтобы ссылка на него находилась в нашем каталоге, свяжитесь с нами и мы незамедлительно удалим её. Файлы для обмена на трекере предоставлены пользователями сайта, и администрация не несёт ответственности за их содержание. Просьба не заливать файлы, защищенные авторскими правами, а также файлы нелегального содержания!