На всех торрентах на трекере установлена скидка на скачивание в размере 100 процентов(а).
 Возможность скачивания торрента НЕ зависит от ограничений при низком ратио, низком аплоаде, требуемом ратио или требуемом аплоаде.


Начать новую тему Ответить на тему
Статистика раздачи
Размер: 10 ГБ | Добавлен: 11 апр 2014, 10:00 | Скачали: 100
Сидеров: 12  [0 байт/сек]    Личеров: 2  [0 байт/сек]
Пред. тема | След. тема 

Автор
Сообщение

СообщениеДобавлено: 11 апр 2014, 10:00 

Вкратце:
Франция, вторая половина XVIII века. В местечке под названием Жевадан появляется страшное существо, прозванное жителями Зверем, оно безжалостно убивает женщин и детей. Зверь кажется неуловимым, уходя от многочисленных облав, его не берут пули, он исчезает так же внезапно как появляется, и только немногие выжившие способны описать его внешность.
Сам король Людовик XV решает разобраться в происходящем и поручает расследовать жестокие убийства учёному Грегору де Фронсаку. С Грегором в Жеводане появляется ещё один герой — индеец Мани — он когда-то спас де Фронсаку жизнь, и теперь они братья по крови.
Вокруг молчаливого индейца таинственности не меньше, чем вокруг Зверя. Мани прибегает к загадочным ритуалам, а в борьбе с монстром полагается на инстинкты и обычаи своего народа.


Название: Братство волка
Оригинальное название: Brotherhood of the Wolf / Le Pacte des loups
Год выхода: 2001
Жанр: Боевик, триллер, драма, детектив, приключения, история
Режиссер: Кристоф Ганс

В ролях: Марк Дакаскос, Венсан Кассель, Моника Беллуччи, Самюэль Ле Бьян, Эмили Декьенн, Жереми Ренье, Жан Янн, Жан-Франсуа Стевенен, Жак Перрен, Йохан Лейзен





Страна: Франция
Студия: Canal+ [fr], Davis-Films, TF1 Films Production
Продолжительность: 02:19:24
Перевод: Дублированный + Оригинал


Кодек: x264
Качество: BDRip 1080p (источник: HDCLUB / Blu-ray Disc / 1080p EUR )
Видео: 1920х824 (2.35:1), 8990 Kbps, 24.000 fps, 0.237 bit/pixel
Аудио #1: 48.0 kHz, AC3 Dolby Digital, 3/2 (L,C,R,l,r) + LFE ch, 640 kbps [Rus]
Аудио #2: 48.0 kHz, AC3 Dolby Digital, 3/2 (L,C,R,l,r) + LFE ch, 640 kbps [Fre]
Субтитры: Русские [форсированные, полные]

Семпл




x264 [info]: frame I:1502 Avg QP:16.54 size:171008
x264 [info]: frame P:47637 Avg QP:19.15 size: 79268
x264 [info]: frame B:151596 Avg QP:20.97 size: 35368
General
Unique ID : 174160034644494383143223305974514322063 (0x830600A953E162A29FB308FD27620A8F)
Complete name : E:Brotherhood.of.the.Wolf.2001.x264.BDRip.1080p.mkv
Format : Matroska
Format version : Version 4 / Version 2
File size : 10.00 GiB
Duration : 2h 19mn
Overall bit rate : 10.3 Mbps
Encoded date : UTC 2013-02-09 12:17:18
Writing application : mkvmerge v6.0.0 ('Coming Up For Air') built on Jan 20 2013 09:52:00
Writing library : libebml v1.3.0 + libmatroska v1.4.0

Video
ID : 1
Format : AVC
Format/Info : Advanced Video Codec
Format profile : High@L4.1
Format settings, CABAC : Yes
Format settings, ReFrames : 5 frames
Codec ID : V_MPEG4/ISO/AVC
Duration : 2h 19mn
Bit rate : 8 990 Kbps
Width : 1 920 pixels
Height : 824 pixels
Display aspect ratio : 2.35:1
Frame rate mode : Constant
Frame rate : 24.000 fps
Color space : YUV
Chroma subsampling : 4:2:0
Bit depth : 8 bits
Scan type : Progressive
Bits/(Pixel*Frame) : 0.237
Stream size : 8.55 GiB (86%)
Writing library : x264 core 129 r2245 bc13772
Encoding settings : cabac=1 / ref=5 / deblock=1:-3:-3 / analyse=0x3:0x133 / me=tesa / subme=11 / psy=1 / psy_rd=1.00:0.09 / mixed_ref=1 / me_range=32 / chroma_me=1 / trellis=2 / 8x8dct=1 / cqm=0 / deadzone=21,11 / fast_pskip=0 / chroma_qp_offset=-3 / threads=12 / lookahead_threads=2 / sliced_threads=0 / nr=0 / decimate=0 / interlaced=0 / bluray_compat=0 / constrained_intra=0 / bframes=5 / b_pyramid=2 / b_adapt=2 / b_bias=0 / direct=3 / weightb=1 / open_gop=0 / weightp=2 / keyint=240 / keyint_min=23 / scenecut=40 / intra_refresh=0 / rc_lookahead=60 / rc=2pass / mbtree=1 / bitrate=8990 / ratetol=1.0 / qcomp=0.60 / qpmin=0 / qpmax=69 / qpstep=4 / cplxblur=20.0 / qblur=0.5 / ip_ratio=1.40 / aq=1:1.00
Language : French
Default : Yes
Forced : No

Audio #1
ID : 2
Format : AC-3
Format/Info : Audio Coding 3
Mode extension : CM (complete main)
Format settings, Endianness : Big
Codec ID : A_AC3
Duration : 2h 19mn
Bit rate mode : Constant
Bit rate : 640 Kbps
Channel(s) : 6 channels
Channel positions : Front: L C R, Side: L R, LFE
Sampling rate : 48.0 KHz
Bit depth : 16 bits
Compression mode : Lossy
Stream size : 638 MiB (6%)
Title : AC3 5.1ch 640 kbps - Дубляж
Language : Russian
Default : Yes
Forced : No

Audio #2
ID : 3
Format : AC-3
Format/Info : Audio Coding 3
Mode extension : CM (complete main)
Format settings, Endianness : Big
Codec ID : A_AC3
Duration : 2h 19mn
Bit rate mode : Constant
Bit rate : 640 Kbps
Channel(s) : 6 channels
Channel positions : Front: L C R, Side: L R, LFE
Sampling rate : 48.0 KHz
Bit depth : 16 bits
Compression mode : Lossy
Stream size : 638 MiB (6%)
Title : AC3 5.1ch 640 kbps - Французский
Language : French
Default : No
Forced : No

Text #1
ID : 4
Format : UTF-8
Codec ID : S_TEXT/UTF8
Codec ID/Info : UTF-8 Plain Text
Title : Русские [форсированные]
Language : Russian
Default : Yes
Forced : No

Text #2
ID : 5
Format : UTF-8
Codec ID : S_TEXT/UTF8
Codec ID/Info : UTF-8 Plain Text
Title : Русские [полные]
Language : Russian
Default : No
Forced : No

Menu
00:00:00.000 : en:
00:11:25.916 : en:
00:22:03.625 : en:
00:35:41.166 : en:
00:47:44.416 : en:
01:01:00.500 : en:
01:11:57.541 : en:
01:22:53.458 : en:
01:34:10.666 : en:
01:47:09.916 : en:
01:57:39.416 : en:
02:06:37.833 : en:
загрузка...
Правила, инструкции, FAQ!!!
Торрент  Добавлен [11 апр 2014, 10:00] Скачать торрент
Скачать торрент
[ Размер 25.62 КБ / Просмотров 4 ]

Статус  
 
Размер  10 ГБ
Приватный: Нет (DHT включён)
.torrent скачан  100
Как залить торрент? | Как скачать Torrent? | Как смотреть и слушать онлайн?  


     Отправить личное сообщение
   
Страница 1 из 1
Показать сообщения за:  Поле сортировки  
Начать новую тему Ответить на тему

   Похожие торренты   Автор   Ответы   Просмотры   Последнее сообщение 
В этой теме нет новых непрочитанных сообщений. Скачать торрент Проверен (Rac) Русский стяг & Jan Peter - Братство по Оружию (Brotherhood in Arms) - 2012, MP3, 320 kbps

в форуме Русский Рок, Размер: 101.75 МБ, Здоровье: 100%

Anonymous

0
2|1

1
0

23 авг 2016, 10:17

Anonymous Перейти к последнему сообщению

В этой теме нет новых непрочитанных сообщений. Скачать торрент Мифы Народов Мира 3: Дух Волка / Myths of the World 3: Spirit Wolf CE (2014) РС

в форуме Приключения и квесты|я ищу, Размер: 1.35 ГБ, Здоровье: 100%

Anonymous

0
134|4

114
106

28 янв 2014, 06:25

Anonymous Перейти к последнему сообщению

В этой теме нет новых непрочитанных сообщений. Скачать торрент Волк / Wolf (2013) BDRip 1080p | L1

в форуме 720p | 1080p, Размер: 14.2 ГБ, Здоровье: 0%

Anonymous

0
0|0

30
0

21 апр 2014, 06:37

Anonymous Перейти к последнему сообщению

В этой теме нет новых непрочитанных сообщений. Скачать торрент Проверен Призрачная тень волка 5. Пути ужаса. Коллекционное издание / Shadow Wolf Mysteries 5. Tracks of Terror Collector's Edition (2016) PC

в форуме Приключения и квесты|я ищу, Размер: 904.01 МБ, Здоровье: 100%

Anonymous

0
134|75

120
13

26 фев 2016, 22:19

Anonymous Перейти к последнему сообщению

В этой теме нет новых непрочитанных сообщений. Скачать торрент Проверен Joe Bonamassa - Muddy Wolf at Red Rocks (2014) BDRip [H.264/1080p]

в форуме Концерты (HD-Video), Размер: 12.02 ГБ, Здоровье: 100%

Гость

0
35|6

156
3

29 мар 2015, 15:09

Гость Перейти к последнему сообщению



Сейчас этот форум просматривают: нет зарегистрированных пользователей и гости: 1


Вы не можете начинать темы
Вы не можете отвечать на сообщения
Вы не можете редактировать свои сообщения
Вы не можете удалять свои сообщения
Вы не можете добавлять вложения

Перейти:  

!ВНИМАНИЕ!
 Ресурс не предоставляет электронные версии произведений, а занимается лишь коллекционированием и каталогизацией ссылок, присылаемых и публикуемых на форуме нашими читателями. Если вы являетесь правообладателем какого-либо представленного материала и не желаете чтобы ссылка на него находилась в нашем каталоге, свяжитесь с нами и мы незамедлительно удалим её. Файлы для обмена на трекере предоставлены пользователями сайта, и администрация не несёт ответственности за их содержание. Просьба не заливать файлы, защищенные авторскими правами, а также файлы нелегального содержания!