На всех торрентах на трекере установлена скидка на скачивание в размере 100 процентов(а).
 Возможность скачивания торрента НЕ зависит от ограничений при низком ратио, низком аплоаде, требуемом ратио или требуемом аплоаде.


Начать новую тему Ответить на тему
Статистика раздачи
Размер: 4.9 ГБ | Добавлен: 11 апр 2014, 09:25 | Скачали: 0
Сидеров: 0  [0 байт/сек]    Личеров: 0  [0 байт/сек]
Пред. тема | След. тема 

Автор
Сообщение

СообщениеДобавлено: 11 апр 2014, 09:25 

Вкратце:
Тома решил поставить отличную пьесу по роману Леопольда фон Захера-Мазоха, под названием «Венера в мехах». Из-за этого он целый день провел на прослушивании, чтоб отыскать среди кандидаток главную героиню, такую, как он её видит. Но кастигн не дал результатов и он уже собрался домой. Тут перед ним появляется Ванда и так же хочет попробовать себя на этой роли. Она олицетворяет в себе всё, что так не нравится Тома. Однако вначале он удивляется её подготовленностью, а в конце становится просто одержим ею...

Название: Венера в мехах
Оригинальное название: La Venus a la fourrure / Venus in Fur
Год выхода: 2013
Жанр: драма
Режиссер: Роман Полански

В ролях: Эмманюэль Сенье, Матье Амальрик





Выпущено: Франция, Польша
Продолжительность: 01:35:45
Озвучивание: Любительское (одноголосое) [А.Матвеев]
перевод на русский язык [kon2011]


Формат: MKV
Качество: BDRip 720p [WiKi]
Видео: 3846 kb/s, 1280x536
Аудио: Russian: DTS, 1510 kb/s (6 ch) / AC3, 448 kb/s (6 ch) / French: DTS, 1510 kb/s (6 ch)
Субтитры: English
Дополнительно: Сохранены оригинальные чаптеры как на Blu-ray
Размер: 4.90 Gb
Скачать: Сэмпл

Релиз группы:



Общее
Venus.in.Fur.2013.Blu.Ray.720p.CINEMANIA.mkv
Формат : Matroska
Версия формата : Version 4 / Version 2
Размер файла : 4,90 Гбайт
Продолжительность : 1 ч. 36 м.
Общий поток : 7301 Кбит/сек
Название фильма : Release Group CINEMANIA
Дата кодирования : UTC 2014-04-10 21:47:13
Программа кодирования : mkvmerge v6.8.0 ('Theme for Great Cities') 64bit built on Mar 2 2014 21:34:26
Библиотека кодирования : libebml v1.3.0 + libmatroska v1.4.1

Видео
Идентификатор : 1
Формат : AVC
Формат/Информация : Advanced Video Codec
Профиль формата : High@L4.1
Параметр CABAC формата : Да
Параметр ReFrames формата : 12 кадров
Идентификатор кодека : V_MPEG4/ISO/AVC
Продолжительность : 1 ч. 36 м.
Битрейт : 3846 Кбит/сек
Ширина : 1280 пикселей
Высота : 536 пикселей
Соотношение сторон : 2,40:1
Режим частоты кадров : Постоянный
Частота кадров : 23,976 кадра/сек
Цветовое пространство : YUV
Субдискретизация насыщенности : 4:2:0
Битовая глубина : 8 бит
Тип развёртки : Прогрессивная
Бит/(Пиксели*Кадры) : 0.234
Размер потока : 2,48 Гбайт (51%)
Заголовок : Release Group CINEMANIA
Библиотека кодирования : x264 core 129 r2245+704+36 8e61944 tMod+MixAQ [8-bit@4:2:0 X86_64]
Настройки программы : cabac=1 / ref=12 / deblock=1:-3:-3 / analyse=0x3:0x133 / me=umh / subme=11 / psy=1 / fade_compensate=0.00 / psy_rd=1.05:0.10 / mixed_ref=1 / me_range=32 / chroma_me=1 / trellis=2 / 8x8dct=1 / cqm=0 / deadzone=21,11 / fast_pskip=0 / chroma_qp_offset=-3 / threads=18 / lookahead_threads=3 / sliced_threads=0 / nr=0 / decimate=0 / interlaced=0 / bluray_compat=0 / constrained_intra=0 / fgo=0 / bframes=8 / b_pyramid=2 / b_adapt=2 / b_bias=0 / direct=3 / weightb=1 / open_gop=0 / weightp=2 / keyint=250 / keyint_min=23 / scenecut=40 / intra_refresh=0 / rc_lookahead=50 / rc=2pass / mbtree=1 / bitrate=3846 / ratetol=1.0 / qcomp=0.75 / qpmin=0 / qpmax=69 / qpstep=4 / cplxblur=20.0 / qblur=0.5 / ip_ratio=1.40 / aq=1 / aq-strength=0.85 / aq-sensitivity=10.00 / aq-ifactor=1.00 / aq-pfactor=1.00 / aq-bfactor=1.00 / aq2=0
Язык : French
Default : Да
Forced : Нет
Коэффициенты матрицы : BT.709

Аудио #1
Идентификатор : 2
Формат : DTS
Формат/Информация : Digital Theater Systems
Режим : 16
Параметр Endianness формата : Big
Идентификатор кодека : A_DTS
Продолжительность : 1 ч. 36 м.
Вид битрейта : Постоянный
Битрейт : 1509 Кбит/сек
Каналы : 6 каналов
Расположение каналов : Front: L C R, Side: L R, LFE
Частота : 48,0 КГц
Битовая глубина : 24 бит
Метод сжатия : С потерями
Размер потока : 1,01 Гбайт (21%)
Заголовок : А.Матвеев
Язык : Russian
Default : Да
Forced : Да

Аудио #2
Идентификатор : 3
Формат : AC-3
Формат/Информация : Audio Coding 3
Расширение режима : CM (complete main)
Параметр Endianness формата : Big
Идентификатор кодека : A_AC3
Продолжительность : 1 ч. 36 м.
Вид битрейта : Постоянный
Битрейт : 448 Кбит/сек
Каналы : 6 каналов
Расположение каналов : Front: L C R, Side: L R, LFE
Частота : 48,0 КГц
Битовая глубина : 16 бит
Метод сжатия : С потерями
Размер потока : 308 Мбайт (6%)
Заголовок : А.Матвеев
Язык : Russian
Default : Нет
Forced : Нет

Аудио #3
Идентификатор : 4
Формат : DTS
Формат/Информация : Digital Theater Systems
Режим : 16
Параметр Endianness формата : Big
Идентификатор кодека : A_DTS
Продолжительность : 1 ч. 36 м.
Вид битрейта : Постоянный
Битрейт : 1509 Кбит/сек
Каналы : 6 каналов
Расположение каналов : Front: L C R, Side: L R, LFE
Частота : 48,0 КГц
Битовая глубина : 16 бит
Метод сжатия : С потерями
Размер потока : 1,01 Гбайт (21%)
Язык : French
Default : Нет
Forced : Нет

Текст
Идентификатор : 5
Формат : UTF-8
Идентификатор кодека : S_TEXT/UTF8
Идентификатор кодека/Информация : UTF-8 Plain Text
Язык : English
Default : Нет
Forced : Нет

Меню
00:00:00.000 : en:00:00:00.000
00:08:07.695 : en:00:08:07.695
00:16:12.221 : en:00:16:12.221
00:23:59.855 : en:00:23:59.855
00:32:19.687 : en:00:32:19.687
00:39:32.953 : en:00:39:32.953
00:46:53.602 : en:00:46:53.602
00:56:18.083 : en:00:56:18.083
01:03:42.527 : en:01:03:42.527
01:12:40.606 : en:01:12:40.606
01:19:08.535 : en:01:19:08.535
01:29:24.400 : en:01:29:24.400
загрузка...
Правила, инструкции, FAQ!!!
Торрент  Добавлен [11 апр 2014, 09:25] Скачать торрент
Скачать торрент
[ Размер 25.05 КБ / Просмотров 2 ]

Статус  
 
Размер  4.9 ГБ
Приватный: Нет (DHT включён)
.torrent скачан  0
Как залить торрент? | Как скачать Torrent? | Как смотреть и слушать онлайн?  


     Отправить личное сообщение
   
Страница 1 из 1
Показать сообщения за:  Поле сортировки  
Начать новую тему Ответить на тему

   Похожие торренты   Автор   Ответы   Просмотры   Последнее сообщение 
В этой теме нет новых непрочитанных сообщений. Скачать торрент Венера в мехах / La Vénus à la fourrure (2013) HDRip | L1

в форуме Драмы, Мелодрамы, Размер: 1.46 ГБ, Здоровье: 0%

Anonymous

0
0|0

43
1

10 апр 2014, 22:57

Anonymous Перейти к последнему сообщению

В этой теме нет новых непрочитанных сообщений. Скачать торрент Венера / Venus (Roger Michell | Роджер Мичелл) [2006 г., Комедия, Мелодрама, Драма, DVDRip] VO + ENG

в форуме Комедии, Размер: 962.13 МБ, Здоровье: 0%

Anonymous

0
0|0

33
0

04 фев 2014, 21:24

Anonymous Перейти к последнему сообщению

В этой теме нет новых непрочитанных сообщений. Скачать торрент Проверен (Heavy Metal/Stoner) Venus Blue - Blue Venus - 2012, MP3, 320 kbps

в форуме Heavy, Power, Progressive (Metal), Размер: 97.53 МБ, Здоровье: 0%

Anonymous

0
0|0

0
0

08 окт 2016, 18:10

Anonymous Перейти к последнему сообщению

В этой теме нет новых непрочитанных сообщений. Скачать торрент Проверен (Hard Rock) Twenty Two Hundred - Carnaval De Venus - 2013, MP3, 320 kbps

в форуме Classic Rock & Hard Rock, Размер: 110.64 МБ, Здоровье: 0%

Anonymous

0
0|0

0
0

13 ноя 2016, 13:35

Anonymous Перейти к последнему сообщению

В этой теме нет новых непрочитанных сообщений. Скачать торрент Shocking Blue - Venus-The Best Of (1993) [MP3|320 кб/с]<Classic Rock>

в форуме Рок, Панк, Метал, Альтернатива, Размер: 100.34 МБ, Здоровье: 100%

Anonymous

0
7|1

83
4

29 мар 2014, 11:44

Anonymous Перейти к последнему сообщению



Сейчас этот форум просматривают: нет зарегистрированных пользователей и гости: 5


Вы не можете начинать темы
Вы не можете отвечать на сообщения
Вы не можете редактировать свои сообщения
Вы не можете удалять свои сообщения
Вы не можете добавлять вложения

Перейти:  

!ВНИМАНИЕ!
 Ресурс не предоставляет электронные версии произведений, а занимается лишь коллекционированием и каталогизацией ссылок, присылаемых и публикуемых на форуме нашими читателями. Если вы являетесь правообладателем какого-либо представленного материала и не желаете чтобы ссылка на него находилась в нашем каталоге, свяжитесь с нами и мы незамедлительно удалим её. Файлы для обмена на трекере предоставлены пользователями сайта, и администрация не несёт ответственности за их содержание. Просьба не заливать файлы, защищенные авторскими правами, а также файлы нелегального содержания!