На всех торрентах на трекере установлена скидка на скачивание в размере 100 процентов(а).
 Возможность скачивания торрента НЕ зависит от ограничений при низком ратио, низком аплоаде, требуемом ратио или требуемом аплоаде.


Начать новую тему Ответить на тему
Статистика раздачи
Размер: 4.37 ГБ | Добавлен: 10 апр 2014, 16:20 | Скачали: 441
Сидеров: 20  [0 байт/сек]    Личеров: 3  [0 байт/сек]
Пред. тема | След. тема 

Автор
Сообщение

СообщениеДобавлено: 10 апр 2014, 16:20 

Описание: Действие фильма разворачивается во время наполеоновских войн. Военный парусник Ее Величества «Сюрприз», бороздящий просторы Атлантики, был неожиданно атакован огромным неизвестным кораблем, появившимся из тумана. Благодаря смелости и находчивости команды «Сюрпризу» удается уйти от смерти. Несмотря на тяжелые повреждения и потери, капитан Джек Обри по прозвищу Счастливчик принимает решение преследовать врага и устремляется в погоню, которая уведет его на край света. На кону репутация Джека, его жизнь и жизнь его команды...


Страна: США
Жанр: боевик, драма, приключения, военный
Год выпуска: 2003
Продолжительность: 02:18:20
Перевод: Профессиональный (полное дублирование) + Оригинальный
Субтитры: английские, русские.


Режиссер: Питер Уир / Peter Weir


В ролях: Рассел Кроу (Capt. Jack Aubrey), Пол Беттани (Dr. Stephen Maturin, Surgeon), Джеймс Д’Арси (1st Lt. Tom Pullings), Эдвард Вудалл (2nd Lt. William Mowett), Крис Ларкин (Capt. Howard, Royal Marines), Макс Пиркис (Blakeney, Midshipman), Джек Рэндалл (Boyle, Midshipman), Макс Бениц (Calamy, Midshipman), Ли Инглби (Hollom, Midshipman), Ричард Пейтс (Williamson, Midshipman), Роберт Пью (Mr. Allen, Master), Ричард МакКейб (Mr. Higgins, Surgeon's Mate)
Дублёры: Станислав Концевич (Capt. Jack Aubrey), Андрей Ургант (Dr. Stephen Maturin, Surgeon), Олег Куликович (1st Lt. Tom Pullings), Андрей Лёвин (Calamy, Midshipman), Евгений Иванов (Hollom, Midshipman), Сергей Паршин (Mr. Allen, Master), Валерий Захарьев (Mr. Higgins, Surgeon's Mate), Алексей Титков (Mr. Lamb, Carpenter), Алексей Зубарев (Preserved Killick, Captain's Steward), Андрей Зайцев (Joseph Nagle, Carpenter's Mate), Борис Улитин (Joe Plaice, Able Seaman), Максим Сергеев (Faster Doudle, Able Seaman; Black Bill, Killick's Mate)






MPAA: PG-13 - Детям до 13 лет просмотр не желателен


Семпл


Качество: BDRip
Контейнер: MKV

Видео: AVC, 1280x544 (2.35:1), 3629 kbps, 23,976 fps, 0,217 bpp
Аудио №1: русский / AC3 / 5.1 / 48 kHz / 448 kbps
Аудио №2: английский / AC3 / 5.1 / 48 kHz / 448 kbps


---------------------------------------------------------------------------
x264 [info]: frame I:2327 Avg QP:16.85 size: 61866
x264 [info]: frame P:126589 Avg QP:19.63 size: 23575
x264 [info]: frame B:70090 Avg QP:21.50 size: 9052
---------------------------------------------------------------------------

Format : Matroska
Format version : Version 2
File size : 4.37 GiB
Duration : 2h 18mn
Overall bit rate : 4 525 Kbps
Movie name : = Хозяин морей: На краю Земли / Master and Commander: The Far Side of the World BDRip 720p by SC Kosmos =
Encoded date : UTC 2014-04-08 16:29:47
Writing application : mkvmerge v3.3.0 ('Language') gebaut am Mar 24 2010 14:59:24
Writing library : libebml v0.8.0 + libmatroska v0.9.0

Video
ID : 1
Format : AVC
Format/Info : Advanced Video Codec
Format profile : High@L4.1
Format settings, CABAC : Yes
Format settings, ReFrames : 10 frames
Codec ID : V_MPEG4/ISO/AVC
Duration : 2h 18mn
Bit rate : 3 629 Kbps
Width : 1 280 pixels
Height : 544 pixels
Display aspect ratio : 2.35:1
Frame rate : 23.976 fps
Color space : YUV
Chroma subsampling : 4:2:0
Bit depth : 8 bits
Scan type : Progressive
Bits/(Pixel*Frame) : 0.217
Stream size : 3.42 GiB (78%)
Title : Хозяин морей: На краю Земли / Master and Commander: The Far Side of the World BDRip 720p by SC Kosmos
Writing library : x264 core 142 r2409 d6b4e63
Encoding settings : cabac=1 / ref=10 / deblock=1:-2:-2 / analyse=0x3:0x113 / me=esa / subme=11 / psy=1 / psy_rd=1.00:0.00 / mixed_ref=1 / me_range=32 / chroma_me=1 / trellis=2 / 8x8dct=1 / cqm=0 / deadzone=21,11 / fast_pskip=0 / chroma_qp_offset=-2 / threads=12 / lookahead_threads=1 / sliced_threads=0 / nr=0 / decimate=1 / interlaced=0 / bluray_compat=0 / constrained_intra=0 / bframes=10 / b_pyramid=2 / b_adapt=1 / b_bias=0 / direct=3 / weightb=1 / open_gop=0 / weightp=2 / keyint=240 / keyint_min=23 / scenecut=40 / intra_refresh=0 / rc=2pass / mbtree=0 / bitrate=3629 / ratetol=1.0 / qcomp=0.60 / qpmin=0 / qpmax=69 / qpstep=4 / cplxblur=20.0 / qblur=0.5 / ip_ratio=1.40 / pb_ratio=1.30 / aq=1:1.00 / zones=185230,199006,b=0.25
Language : English
Default : No
Forced : No

Audio #1
ID : 2
Format : AC-3
Format/Info : Audio Coding 3
Mode extension : CM (complete main)
Codec ID : A_AC3
Duration : 2h 18mn
Bit rate mode : Constant
Bit rate : 448 Kbps
Channel(s) : 6 channels
Channel positions : Front: L C R, Side: L R, LFE
Sampling rate : 48.0 KHz
Bit depth : 16 bits
Compression mode : Lossy
Stream size : 443 MiB (10%)
Title : Дубляж
Language : Russian
Default : Yes
Forced : Yes

Audio #2
ID : 3
Format : AC-3
Format/Info : Audio Coding 3
Mode extension : CM (complete main)
Codec ID : A_AC3
Duration : 2h 18mn
Bit rate mode : Constant
Bit rate : 448 Kbps
Channel(s) : 6 channels
Channel positions : Front: L C R, Side: L R, LFE
Sampling rate : 48.0 KHz
Bit depth : 16 bits
Compression mode : Lossy
Stream size : 443 MiB (10%)
Language : English
Default : No
Forced : No

Text #1
ID : 4
Format : UTF-8
Codec ID : S_TEXT/UTF8
Codec ID/Info : UTF-8 Plain Text
Language : English
Default : No
Forced : No

Text #2
ID : 5
Format : UTF-8
Codec ID : S_TEXT/UTF8
Codec ID/Info : UTF-8 Plain Text
Language : Russian
Default : No
Forced : No





загрузка...
Правила, инструкции, FAQ!!!
Торрент  Добавлен [10 апр 2014, 16:20] Скачать торрент
Скачать торрент
[ Размер 22.37 КБ / Просмотров 5 ]

Статус  
 
Размер  4.37 ГБ
Приватный: Нет (DHT включён)
.torrent скачан  441
Как залить торрент? | Как скачать Torrent? | Как смотреть и слушать онлайн?  


     Отправить личное сообщение
   
Страница 1 из 1
Показать сообщения за:  Поле сортировки  
Начать новую тему Ответить на тему

   Похожие торренты   Автор   Ответы   Просмотры   Последнее сообщение 
В этой теме нет новых непрочитанных сообщений. Скачать торрент Хозяин морей: На краю Земли / Master and Commander: The Far Side of the World (2003) BDRip 1080p

в форуме 720p | 1080p, Размер: 7.95 ГБ, Здоровье: 0%

Anonymous

0
0|0

23
0

20 янв 2014, 14:24

Anonymous Перейти к последнему сообщению

В этой теме нет новых непрочитанных сообщений. Скачать торрент Хозяин морей: На краю Земли / Master and Commander: The Far Side of the World (2003) HDRip | D

в форуме Приключения, Размер: 1.45 ГБ, Здоровье: 0%

Anonymous

0
0|0

123
0

20 янв 2014, 14:21

Anonymous Перейти к последнему сообщению

В этой теме нет новых непрочитанных сообщений. Скачать торрент Хозяин Морей: На краю земли / Master and Commander: The Far Side of the World (Питер Уир /Peter Weir) [2003 г., приключения, боевик, драма, DVDRip]

в форуме Приключения, Размер: 699.67 МБ, Здоровье: 100%

Anonymous

0
1|1

112
0

29 апр 2014, 13:55

Anonymous Перейти к последнему сообщению

В этой теме нет новых непрочитанных сообщений. Скачать торрент Проверен [iPad] Пираты Карибского моря: На краю Света / Pirates of the Caribbean: At World's End (Гор Вербински / Gore Verbinski) [2007 г., боевик, фэнтези, приключения, BDRip 720p]

в форуме Фильмы для iPod, iPhone, iPad, Размер: 3.69 ГБ, Здоровье: 100%

Гость

0
40|13

78
2

13 май 2015, 23:56

Гость Перейти к последнему сообщению

В этой теме нет новых непрочитанных сообщений. Скачать торрент Проверен (Шансон) Роман Лужанский - На краю земли - 2010, MP3, 320 kbps

в форуме Шансон|Авторская песня, Размер: 137.71 МБ, Здоровье: 0%

Anonymous

0
0|0

0
0

05 ноя 2016, 17:06

Anonymous Перейти к последнему сообщению



Сейчас этот форум просматривают: нет зарегистрированных пользователей и гости: 1


Вы не можете начинать темы
Вы не можете отвечать на сообщения
Вы не можете редактировать свои сообщения
Вы не можете удалять свои сообщения
Вы не можете добавлять вложения

Перейти:  

!ВНИМАНИЕ!
 Ресурс не предоставляет электронные версии произведений, а занимается лишь коллекционированием и каталогизацией ссылок, присылаемых и публикуемых на форуме нашими читателями. Если вы являетесь правообладателем какого-либо представленного материала и не желаете чтобы ссылка на него находилась в нашем каталоге, свяжитесь с нами и мы незамедлительно удалим её. Файлы для обмена на трекере предоставлены пользователями сайта, и администрация не несёт ответственности за их содержание. Просьба не заливать файлы, защищенные авторскими правами, а также файлы нелегального содержания!