На всех торрентах на трекере установлена скидка на скачивание в размере 100 процентов(а).
 Возможность скачивания торрента НЕ зависит от ограничений при низком ратио, низком аплоаде, требуемом ратио или требуемом аплоаде.


Начать новую тему Ответить на тему
Статистика раздачи
Размер: 5.61 ГБ | Добавлен: 09 апр 2014, 16:54 | Скачали: 46
Сидеров: 14  [0 байт/сек]    Личеров: 0  [0 байт/сек]
Пред. тема | След. тема 

Автор
Сообщение

СообщениеДобавлено: 09 апр 2014, 16:54 

Название: Таинственный путь
Оригинальное название: Mystery Road
Год выпуска: 2013
Жанр: триллер, детектив
Режиссер: Иван Сен

В ролях: Аарон Педерсен, Хьюго Уивинг, Райан Квантен, Джек Томпсон, Тони Бэрри, Роберт Маммоне, Тасма Уолтон, Дэмиэн Уолш-Хоулинг, Дэвид Филд, Брюс Спенс

О фильме:
Когда на дороге близ провинциального австралийского городка находят тело убитой девочки-аборигенки, за расследование этого преступления берётся детектив Джей Сван, выходец из этих мест. Здешние жители легко идут на контакт с Джеем, а вот его собственные коллеги по непонятным причинам начинают всячески мешать парню в его работе. Естественно, Джей начинает подозревать о существующем среди полицейских преступном заговоре, но истина оказывается гораздо сложнее...



Выпущено: Австралия
Продолжительность: 01:58:35
Озвучивание: Любительское (одноголосое) [datynet]


Формат: MKV
Качество: BDRip 720p [aAF]
Видео: 5087 kb/s, 1280x544
Аудио: Russian: AC3, 192 kb/s (2 ch) / English: DTS, 1510 kb/s (6 ch)
Субтитры: English

Скачать: Сэмпл

Релиз группы:



Общее
Mystery.Road.2013.Blu.Ray.720p.CINEMANIA.mkv
Формат : Matroska
Версия формата : Version 4 / Version 2
Размер файла : 5,61 Гбайт
Продолжительность : 1 ч. 58 м.
Общий поток : 6770 Кбит/сек
Название фильма : Release Group CINEMANIA
Дата кодирования : UTC 2014-04-09 09:05:28
Программа кодирования : mkvmerge v6.8.0 ('Theme for Great Cities') 64bit built on Mar 2 2014 21:34:26
Библиотека кодирования : libebml v1.3.0 + libmatroska v1.4.1

Видео
Идентификатор : 1
Формат : AVC
Формат/Информация : Advanced Video Codec
Профиль формата : High@L4.1
Параметр CABAC формата : Да
Параметр ReFrames формата : 5 кадров
Идентификатор кодека : V_MPEG4/ISO/AVC
Продолжительность : 1 ч. 58 м.
Битрейт : 5087 Кбит/сек
Ширина : 1280 пикселей
Высота : 544 пикселя
Соотношение сторон : 2,35:1
Режим частоты кадров : Постоянный
Частота кадров : 24,000 кадра/сек
Цветовое пространство : YUV
Субдискретизация насыщенности : 4:2:0
Битовая глубина : 8 бит
Тип развёртки : Прогрессивная
Бит/(Пиксели*Кадры) : 0.304
Размер потока : 4,09 Гбайт (73%)
Заголовок : Release Group CINEMANIA
Библиотека кодирования : x264 core 140 r2377 1ca7bb9
Настройки программы : cabac=1 / ref=5 / deblock=1:0:0 / analyse=0x3:0x133 / me=umh / subme=8 / psy=1 / psy_rd=1.00:0.00 / mixed_ref=1 / me_range=16 / chroma_me=1 / trellis=1 / 8x8dct=1 / cqm=0 / deadzone=21,11 / fast_pskip=0 / chroma_qp_offset=-2 / threads=12 / lookahead_threads=2 / sliced_threads=0 / nr=0 / decimate=1 / interlaced=0 / bluray_compat=0 / constrained_intra=0 / bframes=3 / b_pyramid=2 / b_adapt=1 / b_bias=0 / direct=1 / weightb=1 / open_gop=0 / weightp=2 / keyint=240 / keyint_min=24 / scenecut=40 / intra_refresh=0 / rc_lookahead=40 / rc=2pass / mbtree=1 / bitrate=5087 / ratetol=1.0 / qcomp=0.60 / qpmin=0 / qpmax=69 / qpstep=4 / cplxblur=20.0 / qblur=0.5 / ip_ratio=1.40 / aq=1:1.00
Язык : English
Default : Да
Forced : Нет

Аудио #1
Идентификатор : 2
Формат : AC-3
Формат/Информация : Audio Coding 3
Расширение режима : CM (complete main)
Параметр Endianness формата : Big
Идентификатор кодека : A_AC3
Продолжительность : 1 ч. 58 м.
Вид битрейта : Постоянный
Битрейт : 192 Кбит/сек
Каналы : 2 канала
Расположение каналов : Front: L R
Частота : 44,1 КГц
Битовая глубина : 16 бит
Метод сжатия : С потерями
Размер потока : 163 Мбайт (3%)
Заголовок : datynet
Язык : Russian
Default : Да
Forced : Да

Аудио #2
Идентификатор : 3
Формат : DTS
Формат/Информация : Digital Theater Systems
Режим : 16
Параметр Endianness формата : Big
Идентификатор кодека : A_DTS
Продолжительность : 1 ч. 58 м.
Вид битрейта : Постоянный
Битрейт : 1509 Кбит/сек
Каналы : 6 каналов
Расположение каналов : Front: L C R, Side: L R, LFE
Частота : 48,0 КГц
Битовая глубина : 24 бит
Метод сжатия : С потерями
Размер потока : 1,25 Гбайт (22%)
Язык : English
Default : Нет
Forced : Нет

Текст
Идентификатор : 4
Формат : UTF-8
Идентификатор кодека : S_TEXT/UTF8
Идентификатор кодека/Информация : UTF-8 Plain Text
Язык : English
Default : Нет
Forced : Нет
загрузка...
Правила, инструкции, FAQ!!!
Торрент  Добавлен [09 апр 2014, 16:54] Скачать торрент
Скачать торрент
[ Размер 28.61 КБ / Просмотров 5 ]

Статус  
 
Размер  5.61 ГБ
Приватный: Нет (DHT включён)
.torrent скачан  46
Как залить торрент? | Как скачать Torrent? | Как смотреть и слушать онлайн?  


     Отправить личное сообщение
   
Страница 1 из 1
Показать сообщения за:  Поле сортировки  
Начать новую тему Ответить на тему

   Похожие торренты   Автор   Ответы   Просмотры   Последнее сообщение 
В этой теме нет новых непрочитанных сообщений. Скачать торрент Проверен [iPad] Таинственный путь / Mystery Road (Иван Сен / Ivan Sen ) [2013, Австралия, триллер, детектив, HDRip, SD (576p)] VO + Original + sub (eng)

в форуме Фильмы для iPod, iPhone, iPad, Размер: 2.05 ГБ, Здоровье: 100%

Гость

0
7|2

49
0

14 май 2015, 00:21

Гость Перейти к последнему сообщению

В этой теме нет новых непрочитанных сообщений. Скачать торрент Проверен Путь в Палому / Road to Paloma (2014) BDRip 720p | L1

в форуме 720p | 1080p, Размер: 3.4 ГБ, Здоровье: 0%

Anonymous

0
0|0

28
0

12 авг 2014, 21:48

Anonymous Перейти к последнему сообщению

В этой теме нет новых непрочитанных сообщений. Скачать торрент Проверен Проклятый путь / Road to Perdition (2002) BDRip 720p

в форуме 720p | 1080p, Размер: 6.97 ГБ, Здоровье: 42%

Anonymous

0
38|89

17
23

30 ноя 2014, 02:47

Anonymous Перейти к последнему сообщению

В этой теме нет новых непрочитанных сообщений. Скачать торрент Ледовый путь дальнобойщиков / Ice Road Truckers / Сезон: 2 / Серии: 00-14 из 14 + БОНУС (Thom Beers, Adam Martin) [2008, документальный, BDRip] [720p] VO - ПЕРЕВОД Авто Плюс

в форуме Документальные/познавательные фильмы, Размер: 19.26 ГБ, Здоровье: 100%

Anonymous

0
16|5

158
1

04 мар 2014, 13:58

Anonymous Перейти к последнему сообщению

В этой теме нет новых непрочитанных сообщений. Скачать торрент Ледовый путь дальнобойщиков : Самые опасные дороги / Ice Road Truckers : Deadliest Roads / Сезон: 1 / Серии: 01-10 (10) (Thom Beers, Philip David Segal) [2010, документальный, BDRip] [720p]

в форуме Документальные/познавательные фильмы, Размер: 13.08 ГБ, Здоровье: 100%

Anonymous

0
16|13

800
1

04 мар 2014, 13:56

Anonymous Перейти к последнему сообщению



Сейчас этот форум просматривают: нет зарегистрированных пользователей и гости: 1


Вы не можете начинать темы
Вы не можете отвечать на сообщения
Вы не можете редактировать свои сообщения
Вы не можете удалять свои сообщения
Вы не можете добавлять вложения

Перейти:  

!ВНИМАНИЕ!
 Ресурс не предоставляет электронные версии произведений, а занимается лишь коллекционированием и каталогизацией ссылок, присылаемых и публикуемых на форуме нашими читателями. Если вы являетесь правообладателем какого-либо представленного материала и не желаете чтобы ссылка на него находилась в нашем каталоге, свяжитесь с нами и мы незамедлительно удалим её. Файлы для обмена на трекере предоставлены пользователями сайта, и администрация не несёт ответственности за их содержание. Просьба не заливать файлы, защищенные авторскими правами, а также файлы нелегального содержания!