На всех торрентах на трекере установлена скидка на скачивание в размере 100 процентов(а).
 Возможность скачивания торрента НЕ зависит от ограничений при низком ратио, низком аплоаде, требуемом ратио или требуемом аплоаде.


Начать новую тему Ответить на тему
Статистика раздачи
Размер: 7.76 ГБ | Добавлен: 06 апр 2014, 22:05 | Скачали: 138
Сидеров: 7  [0 байт/сек]    Личеров: 0  [0 байт/сек]
Пред. тема | След. тема 

Автор
Сообщение

СообщениеДобавлено: 06 апр 2014, 22:05 

Вкратце:
Группа альпинистов оказалась погребенной заживо в расщелине у вершины К-2, второй после Эвереста горы мира. На такой высоте им оставалось жить считанные часы.
Шестеро отчаянных смельчаков решают подняться на роковую отметку, чтобы вызволить их из ледяной могилы. Но для этого им придется обогнать свою главную соперницу, которая уже спускается по склонам удушающим холодом и неожиданными лавинами — саму смерть.


Название: Вертикальный предел
Оригинальное название: Vertical Limit
Год выхода: 2000
Жанр: боевик, триллер, приключения
Режиссер: Мартин Кэмпбелл

В ролях: Крис О’Доннелл, Робин Танни, Стюарт Уилсон, Оджи Дэвис, Темуэра Моррисон, Рошан Сет, Алехандро Вальдес-Рочин, Николас Лиа, Род Браун, Скотт Гленн.





Выпущено: США, Германия
Продолжительность: 2:04:27
Перевод: Дублированный + Оригинал


Кодек: x264
Качество: BDRip 1080p
Видео: 1920x1040, 7649 Kbps, 23.976 fps
Аудио #1: AC-3, 6 ch, 640 kbps (Rus)
Аудио #2: AC-3, 6 ch, 640 kbps (Eng)
Субтитры: русские, английские

Общее
Уникальный идентификатор : 235688423764411806407609313694569295740 (0xB14FF075226FB90B9236D01358516F7C)
Полное имя : Вертикальный предел.2000.BDRip.1080p.Rus.Eng.mkv
Формат : Matroska
Версия формата : Version 4 / Version 2
Размер файла : 7,76 Гбайт
Продолжительность : 2 ч. 4 м.
Общий поток : 8926 Кбит/сек
Название фильма : Вертикальный предел.2000
Дата кодирования : UTC 2013-03-13 14:55:25
Программа кодирования : mkvmerge v6.0.0 ('Coming Up For Air') built on Jan 20 2013 09:52:00
Библиотека кодирования : libebml v1.3.0 + libmatroska v1.4.0

Видео
Идентификатор : 1
Формат : AVC
Формат/Информация : Advanced Video Codec
Профиль формата : High@L4.1
Параметр CABAC формата : Да
Параметр ReFrames формата : 4 кадра
Идентификатор кодека : V_MPEG4/ISO/AVC
Продолжительность : 2 ч. 4 м.
Битрейт : 7649 Кбит/сек
Ширина : 1920 пикселей
Высота : 1040 пикселей
Соотношение сторон : 1,85:1
Режим частоты кадров : Постоянный
Частота кадров : 23,976 кадра/сек
Цветовое пространство : YUV
Субдискретизация насыщенности : 4:2:0
Битовая глубина : 8 бит
Тип развёртки : Прогрессивная
Бит/(Пиксели*Кадры) : 0.160
Размер потока : 6,49 Гбайт (84%)
Заголовок : Rip by Boriy
Библиотека кодирования : x264 core 130 r2273 b3065e6
Настройки программы : cabac=1 / ref=4 / deblock=1:0:0 / analyse=0x3:0x113 / me=umh / subme=10 / psy=1 / psy_rd=1.00:0.10 / mixed_ref=1 / me_range=32 / chroma_me=1 / trellis=2 / 8x8dct=1 / cqm=0 / deadzone=21,11 / fast_pskip=0 / chroma_qp_offset=-2 / threads=12 / lookahead_threads=1 / sliced_threads=0 / nr=0 / decimate=0 / interlaced=0 / bluray_compat=0 / constrained_intra=0 / bframes=5 / b_pyramid=2 / b_adapt=2 / b_bias=0 / direct=3 / weightb=1 / open_gop=0 / weightp=2 / keyint=240 / keyint_min=23 / scenecut=40 / intra_refresh=0 / rc=2pass / mbtree=0 / bitrate=7649 / ratetol=1.0 / qcomp=0.60 / qpmin=0 / qpmax=69 / qpstep=4 / cplxblur=20.0 / qblur=0.5 / ip_ratio=1.40 / pb_ratio=1.30 / aq=1:0.80
Язык : English
Default : Да
Forced : Нет

Аудио #1
Идентификатор : 2
Формат : AC-3
Формат/Информация : Audio Coding 3
Расширение режима : CM (complete main)
Параметр Endianness формата : Big
Идентификатор кодека : A_AC3
Продолжительность : 2 ч. 4 м.
Вид битрейта : Постоянный
Битрейт : 640 Кбит/сек
Каналы : 6 каналов
Расположение каналов : Front: L C R, Side: L R, LFE
Частота : 48,0 КГц
Битовая глубина : 16 бит
Метод сжатия : С потерями
Размер потока : 570 Мбайт (7%)
Заголовок : Дубляж
Язык : Russian
Default : Да
Forced : Нет

Аудио #2
Идентификатор : 3
Формат : AC-3
Формат/Информация : Audio Coding 3
Расширение режима : CM (complete main)
Параметр Endianness формата : Big
Идентификатор кодека : A_AC3
Продолжительность : 2 ч. 4 м.
Вид битрейта : Постоянный
Битрейт : 640 Кбит/сек
Каналы : 6 каналов
Расположение каналов : Front: L C R, Side: L R, LFE
Частота : 48,0 КГц
Битовая глубина : 16 бит
Метод сжатия : С потерями
Размер потока : 570 Мбайт (7%)
Заголовок : Оригинал
Язык : English
Default : Нет
Forced : Нет

Текст #1
Идентификатор : 4
Формат : UTF-8
Идентификатор кодека : S_TEXT/UTF8
Идентификатор кодека/Информация : UTF-8 Plain Text
Язык : Russian
Default : Нет
Forced : Нет

Текст #2
Идентификатор : 5
Формат : UTF-8
Идентификатор кодека : S_TEXT/UTF8
Идентификатор кодека/Информация : UTF-8 Plain Text
Язык : English
Default : Нет
Forced : Нет

Меню
00:00:00.000 : :Chapter 1
00:13:25.804 : :Chapter 2
00:16:53.637 : :Chapter 3
00:20:49.373 : :Chapter 4
00:30:36.876 : :Chapter 5
00:37:02.762 : :Chapter 6
00:45:55.085 : :Chapter 7
00:53:45.138 : :Chapter 8
00:59:49.419 : :Chapter 9
01:11:23.696 : :Chapter 10
01:14:17.911 : :Chapter 11
01:24:30.231 : :Chapter 12
01:33:14.338 : :Chapter 13
01:37:07.071 : :Chapter 14
01:44:12.037 : :Chapter 15
01:52:46.342 : :Chapter 16
загрузка...
Правила, инструкции, FAQ!!!
Торрент  Добавлен [06 апр 2014, 22:05] Скачать торрент
Скачать торрент
[ Размер 39.34 КБ / Просмотров 4 ]

Статус  
 
Размер  7.76 ГБ
Приватный: Нет (DHT включён)
.torrent скачан  138
Как залить торрент? | Как скачать Torrent? | Как смотреть и слушать онлайн?  


     Отправить личное сообщение
   
Страница 1 из 1
Показать сообщения за:  Поле сортировки  
Начать новую тему Ответить на тему

   Похожие торренты   Автор   Ответы   Просмотры   Последнее сообщение 
В этой теме нет новых непрочитанных сообщений. Скачать торрент Вертикальный предел / Vertical Limit (2000) BDRip

в форуме Боевики, Размер: 1.45 ГБ, Здоровье: 100%

Anonymous

0
46|2

43
374

06 апр 2014, 22:14

Anonymous Перейти к последнему сообщению

В этой теме нет новых непрочитанных сообщений. Скачать торрент Вертикальный предел / Vertical Limit (2000) BDRip 720p | D | Лицензия

в форуме 720p | 1080p, Размер: 4.37 ГБ, Здоровье: 100%

Anonymous

0
8|1

36
95

06 апр 2014, 21:55

Anonymous Перейти к последнему сообщению

В этой теме нет новых непрочитанных сообщений. Скачать торрент Проверен (Prog-Zeuhl-JazzRock) Speed Limit (1974 Speed Limit), 1976 (Speed Limit 2) , France (Prog-Zeuhl-JazzRock) - 1974, FLAC (tracks)

в форуме Progressive & Art-Rock, Размер: 489.18 МБ, Здоровье: 0%

Anonymous

0
0|0

2
0

30 авг 2016, 17:25

Anonymous Перейти к последнему сообщению

В этой теме нет новых непрочитанных сообщений. Скачать торрент Дар / The Gift (2000) BDRip 1080p | P, A

в форуме 720p | 1080p, Размер: 13.02 ГБ, Здоровье: 0%

Anonymous

0
0|0

32
0

02 янв 2014, 11:29

Anonymous Перейти к последнему сообщению

В этой теме нет новых непрочитанных сообщений. Скачать торрент Проверен Сверхновая / Supernova (2000) BDRip 1080p

в форуме 720p | 1080p, Размер: 7.83 ГБ, Здоровье: 100%

Гость

0
86|7

37
834

16 фев 2015, 22:53

Гость Перейти к последнему сообщению



Сейчас этот форум просматривают: нет зарегистрированных пользователей и гости: 1


Вы не можете начинать темы
Вы не можете отвечать на сообщения
Вы не можете редактировать свои сообщения
Вы не можете удалять свои сообщения
Вы не можете добавлять вложения

Перейти:  

!ВНИМАНИЕ!
 Ресурс не предоставляет электронные версии произведений, а занимается лишь коллекционированием и каталогизацией ссылок, присылаемых и публикуемых на форуме нашими читателями. Если вы являетесь правообладателем какого-либо представленного материала и не желаете чтобы ссылка на него находилась в нашем каталоге, свяжитесь с нами и мы незамедлительно удалим её. Файлы для обмена на трекере предоставлены пользователями сайта, и администрация не несёт ответственности за их содержание. Просьба не заливать файлы, защищенные авторскими правами, а также файлы нелегального содержания!