На всех торрентах на трекере установлена скидка на скачивание в размере 100 процентов(а).
 Возможность скачивания торрента НЕ зависит от ограничений при низком ратио, низком аплоаде, требуемом ратио или требуемом аплоаде.


Начать новую тему Ответить на тему
Статистика раздачи
Размер: 4.5 ГБ | Добавлен: 06 апр 2014, 19:54 | Скачали: 50
Сидеров: 4  [0 байт/сек]    Личеров: 0  [0 байт/сек]
Пред. тема | След. тема 

Автор
Сообщение

СообщениеДобавлено: 06 апр 2014, 19:54 

Вкратце:
Алиша — молодая девушка, которая еще никогда в своей жизни не уезжала из Калифорнии. Однажды она согласилась отправиться в путешествие в Чили, куда ее пригласила двоюродная сестра Сара. Вместе с ними в дорогу также отправились друзья сестры: Барбара, Августин и Бринк. Проведя перед путешествием бессонную ночь, Алиша надеялась выспаться в машине, однако у нее так и не получилось этого сделать. Вскоре Сара узнает о том, что ей необходимо вернуться в Сантьяго для сдачи экзамена, и она покидает компанию, оставив с друзьями свою сестру. Алишу не очень удовлетворяет путешествие с новыми знакомыми, а ее состояние и вовсе ухудшается из-за бессонницы...


Название: Магия, магия
Оригинальное название: Magic Magic
Год выхода: 2013
Жанр: триллер
Режиссер: Себастьян Сильва

В ролях: Джуно Темпл, Эмили Браунинг, Майкл Сера, Каталина Сандино Морено, Аугусто Силва, Луис Дубо, Роксана Нараньо, Лоренца Айяпан, Джон Карлос Уэнчунао, Райен Аликинтуй




Выпущено: Чили, США
Продолжительность: 01:34:03
Озвучивание: Профессиональное (многоголосое) [BaibaKo]


Формат: MKV
Качество: BDRip 720p [PFa]
Видео: 5118 kb/s, 1280x528
Аудио: Russian: AC3, 224 kb/s (2 ch) / English: DTS, 1510 kb/s (6 ch)
Субтитры: English

Скачать: Сэмпл

Релиз группы:



Общее
Magic.Magic.2013.Blu.Ray.720p.CINEMANIA.mkv
Формат : Matroska
Версия формата : Version 4 / Version 2
Размер файла : 4,50 Гбайт
Продолжительность : 1 ч. 34 м.
Общий поток : 6853 Кбит/сек
Название фильма : Release Group CINEMANIA
Дата кодирования : UTC 2014-04-06 14:47:25
Программа кодирования : mkvmerge v6.8.0 ('Theme for Great Cities') 64bit built on Mar 2 2014 21:34:26
Библиотека кодирования : libebml v1.3.0 + libmatroska v1.4.1

Видео
Идентификатор : 1
Формат : AVC
Формат/Информация : Advanced Video Codec
Профиль формата : High@L4.1
Параметр CABAC формата : Да
Параметр ReFrames формата : 5 кадров
Идентификатор кодека : V_MPEG4/ISO/AVC
Продолжительность : 1 ч. 34 м.
Битрейт : 5118 Кбит/сек
Ширина : 1280 пикселей
Высота : 528 пикселей
Соотношение сторон : 2,40:1
Режим частоты кадров : Постоянный
Частота кадров : 25,000 кадров/сек
Цветовое пространство : YUV
Субдискретизация насыщенности : 4:2:0
Битовая глубина : 8 бит
Тип развёртки : Прогрессивная
Бит/(Пиксели*Кадры) : 0.303
Размер потока : 3,27 Гбайт (73%)
Заголовок : Release Group CINEMANIA
Библиотека кодирования : x264 core 142 r2409 d6b4e63
Настройки программы : cabac=1 / ref=5 / deblock=1:0:0 / analyse=0x3:0x133 / me=umh / subme=8 / psy=1 / psy_rd=1.00:0.00 / mixed_ref=1 / me_range=16 / chroma_me=1 / trellis=1 / 8x8dct=1 / cqm=0 / deadzone=21,11 / fast_pskip=0 / chroma_qp_offset=-2 / threads=12 / lookahead_threads=2 / sliced_threads=0 / nr=0 / decimate=1 / interlaced=0 / bluray_compat=0 / constrained_intra=0 / bframes=3 / b_pyramid=2 / b_adapt=1 / b_bias=0 / direct=1 / weightb=1 / open_gop=0 / weightp=2 / keyint=250 / keyint_min=25 / scenecut=40 / intra_refresh=0 / rc_lookahead=40 / rc=2pass / mbtree=1 / bitrate=5118 / ratetol=1.0 / qcomp=0.60 / qpmin=0 / qpmax=69 / qpstep=4 / cplxblur=20.0 / qblur=0.5 / ip_ratio=1.40 / aq=1:1.00
Язык : English
Default : Да
Forced : Нет

Аудио #1
Идентификатор : 2
Формат : AC-3
Формат/Информация : Audio Coding 3
Расширение режима : CM (complete main)
Параметр Endianness формата : Big
Идентификатор кодека : A_AC3
Продолжительность : 1 ч. 34 м.
Вид битрейта : Постоянный
Битрейт : 224 Кбит/сек
Каналы : 2 канала
Расположение каналов : Front: L R
Частота : 48,0 КГц
Битовая глубина : 16 бит
Метод сжатия : С потерями
Размер потока : 151 Мбайт (3%)
Заголовок : BaibaKo]
Язык : Russian
Default : Да
Forced : Да

Аудио #2
Идентификатор : 3
Формат : DTS
Формат/Информация : Digital Theater Systems
Режим : 16
Параметр Endianness формата : Big
Идентификатор кодека : A_DTS
Продолжительность : 1 ч. 34 м.
Вид битрейта : Постоянный
Битрейт : 1509 Кбит/сек
Каналы : 6 каналов
Расположение каналов : Front: L C R, Side: L R, LFE
Частота : 48,0 КГц
Битовая глубина : 16 бит
Метод сжатия : С потерями
Размер потока : 1015 Мбайт (22%)
Язык : English
Default : Нет
Forced : Нет

Текст
Идентификатор : 4
Формат : UTF-8
Идентификатор кодека : S_TEXT/UTF8
Идентификатор кодека/Информация : UTF-8 Plain Text
Язык : English
Default : Нет
Forced : Нет
загрузка...
Правила, инструкции, FAQ!!!
Торрент  Добавлен [06 апр 2014, 19:54] Скачать торрент
Скачать торрент
[ Размер 23.08 КБ / Просмотров 6 ]

Статус  
 
Размер  4.5 ГБ
Приватный: Нет (DHT включён)
.torrent скачан  50
Как залить торрент? | Как скачать Torrent? | Как смотреть и слушать онлайн?  


     Отправить личное сообщение
   
Страница 1 из 1
Показать сообщения за:  Поле сортировки  
Начать новую тему Ответить на тему

   Похожие торренты   Автор   Ответы   Просмотры   Последнее сообщение 
В этой теме нет новых непрочитанных сообщений. Скачать торрент Магия, магия / Magic Magic (2013) HDRip

в форуме Триллеры, Размер: 1.46 ГБ, Здоровье: 0%

Anonymous

0
0|0

56
0

06 апр 2014, 20:19

Anonymous Перейти к последнему сообщению

В этой теме нет новых непрочитанных сообщений. Скачать торрент Проверен Практическая магия / Practical Magic (1998) [720p] BDRip

в форуме 720p | 1080p, Размер: 7.91 ГБ, Здоровье: 100%

Anonymous

0
12|2

27
0

10 янв 2015, 22:36

Anonymous Перейти к последнему сообщению

В этой теме нет новых непрочитанных сообщений. Скачать торрент Проверен Магия лунного света / Magic in the Moonlight (2014) BDRip 720p | Чистый звук

в форуме 720p | 1080p, Размер: 4.63 ГБ, Здоровье: 100%

Anonymous

0
776|76

56
646

03 дек 2014, 22:43

Anonymous Перейти к последнему сообщению

В этой теме нет новых непрочитанных сообщений. Скачать торрент Проверен Практическая магия / Practical Magic (1998) BDRip

в форуме Драмы, Мелодрамы, Размер: 2.19 ГБ, Здоровье: 0%

Anonymous

0
0|0

38
0

10 янв 2015, 22:40

Anonymous Перейти к последнему сообщению

В этой теме нет новых непрочитанных сообщений. Скачать торрент Проверен Магия лунного света / Magic in the Moonlight (2014) HDRip | Чистый звук

в форуме Комедии, Размер: 1.37 ГБ, Здоровье: 100%

Гость

0
52|4

82
15

03 дек 2014, 22:47

Гость Перейти к последнему сообщению



Сейчас этот форум просматривают: нет зарегистрированных пользователей и гости: 1


Вы не можете начинать темы
Вы не можете отвечать на сообщения
Вы не можете редактировать свои сообщения
Вы не можете удалять свои сообщения
Вы не можете добавлять вложения

Перейти:  

!ВНИМАНИЕ!
 Ресурс не предоставляет электронные версии произведений, а занимается лишь коллекционированием и каталогизацией ссылок, присылаемых и публикуемых на форуме нашими читателями. Если вы являетесь правообладателем какого-либо представленного материала и не желаете чтобы ссылка на него находилась в нашем каталоге, свяжитесь с нами и мы незамедлительно удалим её. Файлы для обмена на трекере предоставлены пользователями сайта, и администрация не несёт ответственности за их содержание. Просьба не заливать файлы, защищенные авторскими правами, а также файлы нелегального содержания!