На всех торрентах на трекере установлена скидка на скачивание в размере 100 процентов(а).
 Возможность скачивания торрента НЕ зависит от ограничений при низком ратио, низком аплоаде, требуемом ратио или требуемом аплоаде.


Начать новую тему Ответить на тему
Статистика раздачи
Размер: 4.37 ГБ | Добавлен: 06 апр 2014, 12:20 | Скачали: 94
Сидеров: 15  [0 байт/сек]    Личеров: 3  [0 байт/сек]
Пред. тема | След. тема 

Автор
Сообщение

СообщениеДобавлено: 06 апр 2014, 12:20 

Название: Национальная безопасность
Оригинальное название: National Security
Год выхода: 2003
Жанр: боевик, триллер, комедия, криминал
Режиссер: Деннис Дуган



В ролях: Мартин Лоуренс, Стив Зан, Колм Фиор, Билл Дьюк, Эрик Робертс, Тимоти Басфилд, Робин Ли, Мэтт МакКой, Бретт Каллен

О ФИЛЬМЕ
Стать полицейским — мечта многих мальчишек. Стать офицером — мечта многих курсантов полицейской академии. А быть офицером службы «Национальной безопасности» означает только одно — быть неудачником. Эрл Монтгомери очутился там за систематическое нарушение дисциплины — его сочли недостойным носить звание полицейского. Незадолго до этого он подставил Хэнка Рафферти.
По иронии судьбы они становятся напарниками, и отношения между ними скорее напоминают боевые действия. Своими выездами на дежурство они умудряются «достать» весь город. И теперь в городе найдется немало желающих «замочить» эту парочку. Если только бравые блюстители порядка первыми не перебьют друг друга!



Страна: США
Производство: Columbia Pictures Corporation, Intermedia Films, Outlaw Productions
Продолжительность: 01:28:20
Перевод 1: Дублированный [Лицензия]
Перевод 2: Профессиональный (многоголосый)
Перевод 3: Авторский (одноголосый) [Гаврилов]


Качество: BDRip 720p
Формат: MKV
Видео: AVC, 1280x694 (1.85:1) at 23.976 fps, AVC at 4647 kbps avg, 0.218 bit/pixel
Аудио 1: Русский / AC3 / 6ch / 640 kbps | DUB
Аудио 2: Русский / AC3 / 6ch / 448 kbps | MVO
Аудио 3: Русский / AC3 / 6ch / 448 kbps | Гаврилов
Аудио 4: Украинский / AC3 / 6ch / 448 kbps | ICTV
Аудио 5: English AC3 / 6ch / 448 kbps | Original
Субтитры: Русские, Английские
Дополнительно: Сохранены оригинальные чаптеры как на Blu-Ray






General
Unique ID : 182564606641645331379808890014736013565 (0x8958AA0DB4D2BAD5A6522F217D9F58FD)
Complete name : H:National.Security.2003.BD.720.Hot-Film.mkv
Format : Matroska
Format version : Version 2
File size : 4.37 GiB
Duration : 01:28:20
Overall bit rate : 7 080 Kbps
Encoded date : UTC 2014-04-06 07:11:30
Writing application : mkvmerge v5.8.0 ('No Sleep / Pillow') built on Sep 2 2012 15:37:04
Writing library : libebml v1.2.3 + libmatroska v1.3.0
Attachment : Yes

Video
ID : 1
Format : AVC
Format/Info : Advanced Video Codec
Format profile : High@L4.1
Format settings, CABAC : Yes
Format settings, ReFrames : 9 frames
Codec ID : V_MPEG4/ISO/AVC
Duration : 1h 28mn
Bit rate : 4 647 Kbps
Width : 1 280 pixels
Height : 694 pixels
Display aspect ratio : 1.85:1
Frame rate mode : Constant
Frame rate : 23.976 fps
Color space : YUV
Chroma subsampling : 4:2:0
Bit depth : 8 bits
Scan type : Progressive
Bits/(Pixel*Frame) : 0.218
Stream size : 2.78 GiB (64%)
Writing library : x264 core 138 r2358 9e941d1
Encoding settings : cabac=1 / ref=9 / deblock=1:-3:-3 / analyse=0x3:0x133 / me=umh / subme=11 / psy=1 / psy_rd=1.00:0.10 / mixed_ref=1 / me_range=32 / chroma_me=1 / trellis=2 / 8x8dct=1 / cqm=0 / deadzone=21,11 / fast_pskip=0 / chroma_qp_offset=-3 / threads=12 / lookahead_threads=2 / sliced_threads=0 / nr=0 / decimate=0 / interlaced=0 / bluray_compat=0 / constrained_intra=0 / bframes=7 / b_pyramid=2 / b_adapt=2 / b_bias=0 / direct=3 / weightb=1 / open_gop=0 / weightp=2 / keyint=240 / keyint_min=23 / scenecut=40 / intra_refresh=0 / rc_lookahead=40 / rc=2pass / mbtree=0 / bitrate=4647 / ratetol=1.0 / qcomp=0.60 / qpmin=0 / qpmax=69 / qpstep=4 / cplxblur=20.0 / qblur=0.5 / vbv_maxrate=50000 / vbv_bufsize=62500 / nal_hrd=none / ip_ratio=1.40 / pb_ratio=1.33 / aq=1:0.80
Language : English
Default : Yes
Forced : No

Audio #1
ID : 2
Format : AC-3
Format/Info : Audio Coding 3
Mode extension : CM (complete main)
Format settings, Endianness : Big
Codec ID : A_AC3
Duration : 1h 28mn
Bit rate mode : Constant
Bit rate : 640 Kbps
Channel(s) : 6 channels
Channel positions : Front: L C R, Side: L R, LFE
Sampling rate : 48.0 KHz
Bit depth : 16 bits
Compression mode : Lossy
Stream size : 404 MiB (9%)
Title : DUB
Language : Russian
Default : Yes
Forced : No

Audio #2
ID : 3
Format : AC-3
Format/Info : Audio Coding 3
Mode extension : CM (complete main)
Format settings, Endianness : Big
Codec ID : A_AC3
Duration : 1h 28mn
Bit rate mode : Constant
Bit rate : 448 Kbps
Channel(s) : 6 channels
Channel positions : Front: L C R, Side: L R, LFE
Sampling rate : 48.0 KHz
Bit depth : 16 bits
Compression mode : Lossy
Stream size : 283 MiB (6%)
Title : MVO
Language : Russian
Default : No
Forced : No

Audio #3
ID : 4
Format : AC-3
Format/Info : Audio Coding 3
Mode extension : CM (complete main)
Format settings, Endianness : Big
Codec ID : A_AC3
Duration : 1h 28mn
Bit rate mode : Constant
Bit rate : 448 Kbps
Channel(s) : 6 channels
Channel positions : Front: L C R, Side: L R, LFE
Sampling rate : 48.0 KHz
Bit depth : 16 bits
Compression mode : Lossy
Stream size : 283 MiB (6%)
Title : Гаврилов
Language : Russian
Default : No
Forced : No

Audio #4
ID : 5
Format : AC-3
Format/Info : Audio Coding 3
Mode extension : CM (complete main)
Format settings, Endianness : Big
Codec ID : A_AC3
Duration : 1h 28mn
Bit rate mode : Constant
Bit rate : 448 Kbps
Channel(s) : 6 channels
Channel positions : Front: L C R, Side: L R, LFE
Sampling rate : 48.0 KHz
Bit depth : 16 bits
Compression mode : Lossy
Stream size : 283 MiB (6%)
Title : ICTV
Language : Ukrainian
Default : No
Forced : No

Audio #5
ID : 6
Format : AC-3
Format/Info : Audio Coding 3
Mode extension : CM (complete main)
Format settings, Endianness : Big
Codec ID : A_AC3
Duration : 1h 28mn
Bit rate mode : Constant
Bit rate : 448 Kbps
Channel(s) : 6 channels
Channel positions : Front: L C R, Side: L R, LFE
Sampling rate : 48.0 KHz
Bit depth : 16 bits
Compression mode : Lossy
Stream size : 283 MiB (6%)
Title : Original
Language : English
Default : No
Forced : No

Text #1
ID : 7
Format : UTF-8
Codec ID : S_TEXT/UTF8
Codec ID/Info : UTF-8 Plain Text
Title : FULL
Language : Russian
Default : No
Forced : No

Text #2
ID : 8
Format : UTF-8
Codec ID : S_TEXT/UTF8
Codec ID/Info : UTF-8 Plain Text
Title : FULL
Language : English
Default : No
Forced : No

Menu
00:00:00.000 : :Chapter 01
00:05:13.230 : :Chapter 02
00:10:40.223 : :Chapter 03
00:14:48.471 : :Chapter 04
00:19:17.656 : :Chapter 05
00:25:22.104 : :Chapter 06
00:30:30.954 : :Chapter 07
00:38:21.799 : :Chapter 08
00:42:06.107 : :Chapter 09
00:46:42.883 : :Chapter 10
00:52:32.649 : :Chapter 11
00:58:30.841 : :Chapter 12
01:04:38.541 : :Chapter 13
01:08:49.292 : :Chapter 14
01:14:16.535 : :Chapter 15
01:21:11.950 : :Chapter 16

Релиз от:
загрузка...
Правила, инструкции, FAQ!!!
Торрент  Добавлен [06 апр 2014, 12:20] Скачать торрент
Скачать торрент
[ Размер 22.42 КБ / Просмотров 10 ]

Статус  
 
Размер  4.37 ГБ
Приватный: Нет (DHT включён)
.torrent скачан  94
Как залить торрент? | Как скачать Torrent? | Как смотреть и слушать онлайн?  


     Отправить личное сообщение
   
Страница 1 из 1
Показать сообщения за:  Поле сортировки  
Начать новую тему Ответить на тему

   Похожие торренты   Автор   Ответы   Просмотры   Последнее сообщение 
В этой теме нет новых непрочитанных сообщений. Скачать торрент Национальная безопасность / National Security (2003) BDRip

в форуме Боевики, Размер: 1.46 ГБ, Здоровье: 0%

Anonymous

0
0|0

58
0

06 апр 2014, 12:23

Anonymous Перейти к последнему сообщению

В этой теме нет новых непрочитанных сообщений. Скачать торрент Проверен Переполох в общаге / National Lampoon Presents Dorm Daze (2003) BDRip 1080p | D, P2, A

в форуме 720p | 1080p, Размер: 6.48 ГБ, Здоровье: 100%

Anonymous

0
14|0

22
67

21 май 2014, 06:19

Anonymous Перейти к последнему сообщению

В этой теме нет новых непрочитанных сообщений. Скачать торрент Сокровище нации / National Treasure (Джон Тёртелтауб / Jon Turteltaub) [2004, США, боевик, приключения, BDRip-AVC] [720p] Dub

в форуме Боевики, Размер: 4.33 ГБ, Здоровье: 100%

Anonymous

0
18|6

39
0

24 апр 2014, 14:08

Anonymous Перейти к последнему сообщению

В этой теме нет новых непрочитанных сообщений. Скачать торрент Проверен Santana - Shaman (2003) [MLP 5.1, 2.0 96/24 |DVD-Audio] <National music>

в форуме DVD-Audio, Размер: 6.66 ГБ, Здоровье: 20%

Anonymous

0
43|213

68
5

25 янв 2015, 13:03

Anonymous Перейти к последнему сообщению

В этой теме нет новых непрочитанных сообщений. Скачать торрент Проверен The Tragically Hip - A National Celebration: Live from Kingston [2016, Rock, HDTVRip, 720p]

в форуме Концерты (HD-Video), Размер: 7.28 ГБ, Здоровье: 100%

Anonymous

0
1|0

0
0

23 окт 2016, 14:28

Anonymous Перейти к последнему сообщению



Сейчас этот форум просматривают: нет зарегистрированных пользователей и гости: 2


Вы не можете начинать темы
Вы не можете отвечать на сообщения
Вы не можете редактировать свои сообщения
Вы не можете удалять свои сообщения
Вы не можете добавлять вложения

Перейти:  

!ВНИМАНИЕ!
 Ресурс не предоставляет электронные версии произведений, а занимается лишь коллекционированием и каталогизацией ссылок, присылаемых и публикуемых на форуме нашими читателями. Если вы являетесь правообладателем какого-либо представленного материала и не желаете чтобы ссылка на него находилась в нашем каталоге, свяжитесь с нами и мы незамедлительно удалим её. Файлы для обмена на трекере предоставлены пользователями сайта, и администрация не несёт ответственности за их содержание. Просьба не заливать файлы, защищенные авторскими правами, а также файлы нелегального содержания!