На всех торрентах на трекере установлена скидка на скачивание в размере 100 процентов(а).
 Возможность скачивания торрента НЕ зависит от ограничений при низком ратио, низком аплоаде, требуемом ратио или требуемом аплоаде.


Начать новую тему Ответить на тему
Статистика раздачи
Размер: 5.76 ГБ | Добавлен: 05 апр 2014, 22:18 | Скачали: 101
Сидеров: 15  [0 байт/сек]    Личеров: 0  [0 байт/сек]
Пред. тема | След. тема 

Автор
Сообщение

СообщениеДобавлено: 05 апр 2014, 22:18 

Название: В белом плену / Снежная тюрьма
Оригинальное название: Into the White
Год выхода: 2012
Жанр: Боевик, драма, военный
Режиссер: Петтер Несс

В ролях: Флориан Лукас, Давид Кросс, Стиг Хенрик Хофф, Локлен Нибор, Руперт Гринт, Ким Хёуген, Кнут Йонер, Мортен Фальдаас, Сондре Крогтофт Ларсен

О фильме:
Одним холодным зимним днем над территорией Норвегии разгорается жаркое сражение двух самолетов — немецкого и английского. В результате столкновения обе машины получают серьезные повреждения и падают в глухом норвежском лесу. Здесь, в изоляции от внешнего мира, враги вынуждены выживать вместе. Тяжелые условия и необходимость поддерживать друг друга постепенно превращают врагов в товарищей



Страна: Норвегия, Швеция
Студия: Zentropa International Norway, Eurimages, Film Fund FUZZ
Продолжительность: 01:44:20
Перевод: Профессиональный (многоголосый закадровый) Позитив + Оригинал


Кодек: x264
Качество: BDRip 1080p (источник: Blu-ray Remux / 1080p)
Видео: 1920х816 (2.35:1), 7076 Kbps, 23.976 fps, 0.188 bit/pixel
Аудио #1: 48.0 kHz, AC3 Dolby Digital, 2/0 (L,R) ch, 192 kbps [Многоголосый, Позитив]
Аудио #2: 48.0 kHz, AC3 Dolby Digital, 3/2 (L,C,R,l,r) + LFE ch, 640 kbps [Норвежский]
Субтитры: Английские

Семпл



x264 [info]: frame I:1259 Avg QP:14.99 size:221746
x264 [info]: frame P:38455 Avg QP:16.96 size: 66608
x264 [info]: frame B:110381 Avg QP:18.54 size: 24356
General
Unique ID : 186040143038888958456456563065107944494 (0x8BF6073A52590E62B41656843E32942E)
Complete name : E:Into.the.White.2012.x264.BDRip.1080p.mkv
Format : Matroska
Format version : Version 4 / Version 2
File size : 5.76 GiB
Duration : 1h 44mn
Overall bit rate : 7 900 Kbps
Encoded date : UTC 2013-08-01 20:08:31
Writing application : mkvmerge v6.3.0 ('You can't stop me!') built on Jun 28 2013 20:09:41
Writing library : libebml v1.3.0 + libmatroska v1.4.0

Video
ID : 1
Format : AVC
Format/Info : Advanced Video Codec
Format profile : High@L4.1
Format settings, CABAC : Yes
Format settings, ReFrames : 5 frames
Codec ID : V_MPEG4/ISO/AVC
Duration : 1h 44mn
Bit rate : 7 076 Kbps
Width : 1 920 pixels
Height : 816 pixels
Display aspect ratio : 2.35:1
Frame rate mode : Constant
Frame rate : 23.976 fps
Color space : YUV
Chroma subsampling : 4:2:0
Bit depth : 8 bits
Scan type : Progressive
Bits/(Pixel*Frame) : 0.188
Stream size : 5.04 GiB (87%)
Writing library : x264 core 135 r2345 f0c1c53
Encoding settings : cabac=1 / ref=5 / deblock=1:-3:-3 / analyse=0x3:0x133 / me=tesa / subme=11 / psy=1 / psy_rd=1.00:0.03 / mixed_ref=1 / me_range=32 / chroma_me=1 / trellis=2 / 8x8dct=1 / cqm=0 / deadzone=21,11 / fast_pskip=0 / chroma_qp_offset=-3 / threads=12 / lookahead_threads=1 / sliced_threads=0 / nr=0 / decimate=0 / interlaced=0 / bluray_compat=0 / constrained_intra=0 / bframes=4 / b_pyramid=2 / b_adapt=2 / b_bias=0 / direct=3 / weightb=1 / open_gop=0 / weightp=2 / keyint=240 / keyint_min=23 / scenecut=40 / intra_refresh=0 / rc=2pass / mbtree=0 / bitrate=7076 / ratetol=1.0 / qcomp=0.60 / qpmin=0 / qpmax=69 / qpstep=4 / cplxblur=20.0 / qblur=0.5 / ip_ratio=1.40 / pb_ratio=1.30 / aq=1:1.00
Language : Norwegian
Default : Yes
Forced : No

Audio #1
ID : 2
Format : AC-3
Format/Info : Audio Coding 3
Format profile : Dolby Digital
Mode extension : CM (complete main)
Format settings, Endianness : Big
Codec ID : A_AC3
Duration : 1h 44mn
Bit rate mode : Constant
Bit rate : 192 Kbps
Channel(s) : 2 channels
Channel positions : Front: L R
Sampling rate : 48.0 KHz
Bit depth : 16 bits
Compression mode : Lossy
Stream size : 143 MiB (2%)
Title : AC3 2.0ch 192 kbps - Многоголосый, Позитив
Language : Russian
Default : Yes
Forced : No

Audio #2
ID : 3
Format : AC-3
Format/Info : Audio Coding 3
Mode extension : CM (complete main)
Format settings, Endianness : Big
Codec ID : A_AC3
Duration : 1h 44mn
Bit rate mode : Constant
Bit rate : 640 Kbps
Channel(s) : 6 channels
Channel positions : Front: L C R, Side: L R, LFE
Sampling rate : 48.0 KHz
Bit depth : 16 bits
Compression mode : Lossy
Stream size : 478 MiB (8%)
Title : AC3 5.1ch 640 kbps - Норвежский
Language : Norwegian
Default : No
Forced : No

Text
ID : 4
Format : UTF-8
Codec ID : S_TEXT/UTF8
Codec ID/Info : UTF-8 Plain Text
Title : Английские
Language : English
Default : No
Forced : No

Menu
00:00:00.000 : en:
00:05:00.000 : en:
00:10:00.000 : en:
00:15:00.000 : en:
00:20:00.000 : en:
00:25:00.000 : en:
00:30:00.000 : en:
00:35:00.000 : en:
00:40:00.000 : en:
00:45:00.000 : en:
00:50:00.000 : en:
00:55:00.000 : en:
01:00:00.000 : en:
01:05:00.000 : en:
01:10:00.000 : en:
01:15:00.000 : en:
01:20:00.000 : en:
01:25:00.000 : en:
01:30:00.000 : en:
01:35:00.000 : en:
01:40:00.000 : en:
загрузка...
Правила, инструкции, FAQ!!!
Торрент  Добавлен [05 апр 2014, 22:18] Скачать торрент
Скачать торрент
[ Размер 15 КБ / Просмотров 8 ]

Статус  
 
Размер  5.76 ГБ
Приватный: Нет (DHT включён)
.torrent скачан  101
Как залить торрент? | Как скачать Torrent? | Как смотреть и слушать онлайн?  


     Отправить личное сообщение
   
Страница 1 из 1
Показать сообщения за:  Поле сортировки  
Начать новую тему Ответить на тему

   Похожие торренты   Автор   Ответы   Просмотры   Последнее сообщение 
В этой теме нет новых непрочитанных сообщений. Скачать торрент В белом плену / Into the White / Comrade (2012) BDRip 720p | P, A

в форуме 720p | 1080p, Размер: 5.52 ГБ, Здоровье: 0%

Anonymous

0
0|0

96
28

05 апр 2014, 22:08

Anonymous Перейти к последнему сообщению

В этой теме нет новых непрочитанных сообщений. Скачать торрент Проверен The White Stripes: Under Great White Northern Lights (Emmett Malloy) [2010, Indie, Post-Rock, BDRip, 1080p]

в форуме Концерты (HD-Video), Размер: 6.56 ГБ, Здоровье: 100%

Anonymous

0
9|3

0
0

23 окт 2016, 14:00

Anonymous Перейти к последнему сообщению

В этой теме нет новых непрочитанных сообщений. Скачать торрент Проверен Чжун Куй: Снежная дева и тёмный кристалл / Zhong Kui fu mo: Xue yao mo ling (2015) BDRip 1080p от Ash61 | 3D-Video | halfOU | L2

в форуме HD-Video в 3D, Размер: 10.24 ГБ, Здоровье: 16%

Гость

0
6|36

159
4

27 мар 2016, 23:45

Гость Перейти к последнему сообщению

В этой теме нет новых непрочитанных сообщений. Скачать торрент Снежная королева (2012) BDRip

в форуме Отечественные мультфильмы, Размер: 1.36 ГБ, Здоровье: 100%

Anonymous

0
28|2

72
0

02 фев 2014, 21:04

Anonymous Перейти к последнему сообщению

В этой теме нет новых непрочитанных сообщений. Скачать торрент Снежная королева (2012) [H.264/720p-LQ] BDRip

в форуме Отечественные мультфильмы (HD Video), Размер: 2.18 ГБ, Здоровье: 0%

Anonymous

0
0|0

130
1

02 фев 2014, 21:05

Anonymous Перейти к последнему сообщению



Сейчас этот форум просматривают: нет зарегистрированных пользователей и гости: 4


Вы не можете начинать темы
Вы не можете отвечать на сообщения
Вы не можете редактировать свои сообщения
Вы не можете удалять свои сообщения
Вы не можете добавлять вложения

Перейти:  

!ВНИМАНИЕ!
 Ресурс не предоставляет электронные версии произведений, а занимается лишь коллекционированием и каталогизацией ссылок, присылаемых и публикуемых на форуме нашими читателями. Если вы являетесь правообладателем какого-либо представленного материала и не желаете чтобы ссылка на него находилась в нашем каталоге, свяжитесь с нами и мы незамедлительно удалим её. Файлы для обмена на трекере предоставлены пользователями сайта, и администрация не несёт ответственности за их содержание. Просьба не заливать файлы, защищенные авторскими правами, а также файлы нелегального содержания!