На всех торрентах на трекере установлена скидка на скачивание в размере 100 процентов(а).
 Возможность скачивания торрента НЕ зависит от ограничений при низком ратио, низком аплоаде, требуемом ратио или требуемом аплоаде.


Начать новую тему Ответить на тему
Статистика раздачи
Размер: 3.43 ГБ | Добавлен: 01 апр 2014, 23:06 | Скачали: 67
Сидеров: 7  [0 байт/сек]    Личеров: 0  [0 байт/сек]
Пред. тема | След. тема 

Автор
Сообщение

СообщениеДобавлено: 01 апр 2014, 23:06 

Год выпуска: 2006
Жанр: Фантастика, триллер, драма
Режиссер: Грегор Шницлер

В ролях: Паула Каленберг, Франц Динда, Ханс-Лаурин Бейерлинг, Карина Визе, Дженнифер Ульрих, Клэр Олькерс, Том Влашиха, Карл Кранцковски, Жозефина Меркац, Никита Кулен

Описание:
Маленький немецкий городок Шлиц объят паникой — на расположенной неподалёку атомной электростанции произошла авария, и всю округу накрывает радиоактивное облако…



Страна: Германия
Продолжительность: 01:42:28
Перевод: Профессиональный (двухголосый, cтудия «Пифагор» по заказу ГТРК «Культура»)
Субтитры: Отсутствуют


Качество: BDRip 720p
Контейнер: MKV
Видео: MPEG-4 AVC, 1280x544, 4601 Kbps, 23.976 fps
Аудио: AC3, 2 ch, 192 Kbps

General
Unique ID : 196167487768965222562561099818706169178 (0x93947BDF9F293790BC832C2A1ECC6D5A)
Complete name : F:Oblako.(2006).BDRip720p.mkv
Format : Matroska
Format version : Version 4 / Version 2
File size : 3.43 GiB
Duration : 1h 42mn
Overall bit rate : 4 794 Kbps
Encoded date : UTC 2014-04-01 13:23:40
Writing application : mkvmerge v6.8.0 ('Theme for Great Cities') 64bit built on Mar 2 2014 21:34:26
Writing library : libebml v1.3.0 + libmatroska v1.4.1

Video
ID : 1
Format : AVC
Format/Info : Advanced Video Codec
Format profile : High@L4.1
Format settings, CABAC : Yes
Format settings, ReFrames : 5 frames
Codec ID : V_MPEG4/ISO/AVC
Duration : 1h 42mn
Bit rate : 4 601 Kbps
Width : 1 280 pixels
Height : 544 pixels
Display aspect ratio : 2.35:1
Frame rate mode : Constant
Frame rate : 23.976 fps
Color space : YUV
Chroma subsampling : 4:2:0
Bit depth : 8 bits
Scan type : Progressive
Bits/(Pixel*Frame) : 0.276
Stream size : 3.23 GiB (94%)
Writing library : x264 core 115 r1995 c1e60b9
Encoding settings : cabac=1 / ref=5 / deblock=1:0:0 / analyse=0x3:0x133 / me=umh / subme=7 / psy=1 / psy_rd=1.00:0.00 / mixed_ref=1 / me_range=16 / chroma_me=1 / trellis=1 / 8x8dct=1 / cqm=0 / deadzone=21,11 / fast_pskip=0 / chroma_qp_offset=-2 / threads=9 / sliced_threads=0 / nr=0 / decimate=1 / interlaced=0 / bluray_compat=0 / constrained_intra=0 / bframes=3 / b_pyramid=2 / b_adapt=1 / b_bias=0 / direct=1 / weightb=1 / open_gop=0 / weightp=2 / keyint=250 / keyint_min=23 / scenecut=40 / intra_refresh=0 / rc_lookahead=40 / rc=2pass / mbtree=1 / bitrate=4601 / ratetol=1.0 / qcomp=0.60 / qpmin=0 / qpmax=69 / qpstep=4 / cplxblur=20.0 / qblur=0.5 / ip_ratio=1.40 / aq=1:1.00
Default : Yes
Forced : No

Audio
ID : 2
Format : AC-3
Format/Info : Audio Coding 3
Mode extension : CM (complete main)
Format settings, Endianness : Big
Codec ID : A_AC3
Duration : 1h 42mn
Bit rate mode : Constant
Bit rate : 192 Kbps
Channel(s) : 2 channels
Channel positions : Front: L R
Sampling rate : 48.0 KHz
Bit depth : 16 bits
Compression mode : Lossy
Stream size : 141 MiB (4%)
Title : DVO (Студия «Пифагор» по заказу ГТРК «Культура»)
Language : Russian
Default : Yes
Forced : No
загрузка...
Правила, инструкции, FAQ!!!
Торрент  Добавлен [01 апр 2014, 23:06] Скачать торрент
Скачать торрент
[ Размер 17.76 КБ / Просмотров 8 ]

Статус  
 
Размер  3.43 ГБ
Приватный: Нет (DHT включён)
.torrent скачан  67
Как залить торрент? | Как скачать Torrent? | Как смотреть и слушать онлайн?  


     Отправить личное сообщение
   
Страница 1 из 1
Показать сообщения за:  Поле сортировки  
Начать новую тему Ответить на тему

   Похожие торренты   Автор   Ответы   Просмотры   Последнее сообщение 
В этой теме нет новых непрочитанных сообщений. Скачать торрент Проверен Облако / Die Wolke (2006) BDRip 1080p | P

в форуме 720p | 1080p, Размер: 7.75 ГБ, Здоровье: 100%

Гость

0
99|47

56
97

16 авг 2015, 00:40

Гость Перейти к последнему сообщению

В этой теме нет новых непрочитанных сообщений. Скачать торрент Облако / Die Wolke / The Cloud (2006) HDRip | Р

в форуме Фантастика, Фэнтези, Размер: 1.45 ГБ, Здоровье: 100%

Anonymous

0
26|0

58
164

01 апр 2014, 23:12

Anonymous Перейти к последнему сообщению

В этой теме нет новых непрочитанных сообщений. Скачать торрент На девятом небе / Wolke Neun / Wolke 9 / Cloud Nine (Андреас Дрезен / Andreas Dresen) [2008 г., Драма, романтика, DVDRip]

в форуме Драмы, Мелодрамы, Размер: 1.36 ГБ, Здоровье: 100%

Anonymous

0
8|2

89
1

19 фев 2014, 11:42

Anonymous Перейти к последнему сообщению

В этой теме нет новых непрочитанных сообщений. Скачать торрент Облако 9 / Cloud 9 (2014) WEB-DL 720p | D

в форуме 720p | 1080p, Размер: 2.8 ГБ, Здоровье: 0%

Anonymous

0
0|0

22
0

02 мар 2014, 09:15

Anonymous Перейти к последнему сообщению

В этой теме нет новых непрочитанных сообщений. Скачать торрент Проверен Магелланово облако - Магелланово облако (2013) [MP3|320 кб/с]<rock, cardiowave>

в форуме Русский Рок, Размер: 135.95 МБ, Здоровье: 100%

Anonymous

0
56|3

51
2

03 июл 2014, 06:48

Anonymous Перейти к последнему сообщению



Сейчас этот форум просматривают: нет зарегистрированных пользователей и гости: 1


Вы не можете начинать темы
Вы не можете отвечать на сообщения
Вы не можете редактировать свои сообщения
Вы не можете удалять свои сообщения
Вы не можете добавлять вложения

Перейти:  

!ВНИМАНИЕ!
 Ресурс не предоставляет электронные версии произведений, а занимается лишь коллекционированием и каталогизацией ссылок, присылаемых и публикуемых на форуме нашими читателями. Если вы являетесь правообладателем какого-либо представленного материала и не желаете чтобы ссылка на него находилась в нашем каталоге, свяжитесь с нами и мы незамедлительно удалим её. Файлы для обмена на трекере предоставлены пользователями сайта, и администрация не несёт ответственности за их содержание. Просьба не заливать файлы, защищенные авторскими правами, а также файлы нелегального содержания!