На всех торрентах на трекере установлена скидка на скачивание в размере 100 процентов(а).
 Возможность скачивания торрента НЕ зависит от ограничений при низком ратио, низком аплоаде, требуемом ратио или требуемом аплоаде.


Начать новую тему Ответить на тему
Статистика раздачи
Размер: 2.2 ГБ | Добавлен: 01 апр 2014, 09:35 | Скачали: 0
Сидеров: 27  [0 байт/сек]    Личеров: 9  [0 байт/сек]
Пред. тема | След. тема 

Автор
Сообщение

СообщениеДобавлено: 01 апр 2014, 09:35 

Щедрость Перрье / Perrier's Bounty

Год выпуска: 2009
Страна: Великобритания, Ирландия
Слоган: «Blood is thicker than water. Nothing is thicker than thieves.»
Жанр: боевик, триллер, драма, комедия, криминал
Продолжительность: 01:27:37
Перевод: Авторский (Сербин Юрий) одноголосый
Русские субтитры: есть

Режиссер: Йен Фитцгиббон / Ian Fitzgibbon
Сценарий: Марк О’Роу / Mark O'Rowe
Продюсер: Адам Беттеридж / Adam Betteridge, Пол Уайт / Paul White, Стефен Вули / Stephen Woolley, Тим Хаслам / Tim Haslam, Сьюзэн Холмс / Susan Holmes
Оператор: Шеймас Дизи / Seamus Deasy
Композитор: Дэвид Холмс / David Holmes




В ролях: Киллиан Мёрфи, Джим Броудбент, Брендан Глисон, Домналл Глисон, Гэбриел Бирн, Джоди Уитейкер, Брендан Койл, Падрейк Делейни, Эндрю Симпсон, Нед Деннехи

Сборы в США: $828
Сборы в мире: $167 938
Мировая премьера: 11 сентября 2009



Описание: Действие фильма разворачивается в Дублине вокруг трёх беглецов, спасающихся от гангстера по имени Перрье, который, в свою очередь, отчаянно пытается сохранить авторитет и деньги после случайного убийства преданного напарника.





MPAA: R - Лицам до 17 лет обязательно присутствие взрослого



Качество: BDRip-AVC | семпл
Формат: MKV
Видео кодек: Н.264
Аудио кодек: АС-3
Видео: AVC at 2 628 Kbps 1280 x 536 (2.388) at 23.976 fps
Аудио: AC-3 at 448 Kbps 6 channels, 48.0 KHz
Аудио 2: AC-3 at 448 Kbps 6 channels, 48.0 KHz
Субтитры: русские UTF-8
Скриншоты
Mediainfo
Размер файла : 2.20 GiB
Продолжительность : 1h 27mn
Общий поток : 3 595 Kbps
Дата кодирования : UTC 2011-02-25 12:14:04
Программа-кодировщик : mkvmerge v4.2.0 ('No Talking') сборка от Jul 28 2010 18:38:23
Библиотека кодирования : libebml v1.0.0 + libmatroska v1.0.0

Video
Идентификатор : 1
Формат : AVC
Формат/Информация : Advanced Video Codec
Профайл формата : High@L4.1
Параметры CABAC формата : Yes
Параметры ReFrames формата : 9 frames
Режим смешивания : Container profile=Unknown@4.1
Идентификатор кодека : V_MPEG4/ISO/AVC
Продолжительность : 1h 27mn
Битрейт : 2 628 Kbps
Ширина : 1 280 pixels
Высота : 536 pixels
Соотношение кадра : 2.35:1
Частота кадров : 23.976 fps
Разрешение : 24 bits
Колориметрия : 4:2:0
Тип развёртки : Progressive
Бит/(Пиксели*Кадры) : 0.160
Размер потока : 1.61 GiB (73%)
Библиотека кодирования : x264 core 112 r1834 a51816a
Настройки программы : cabac=1 / ref=9 / deblock=1:-1:-2 / analyse=0x3:0x133 / me=umh / subme=10 / psy=1 / psy_rd=1.00:0.00 / mixed_ref=1 / me_range=32 / chroma_me=1 / trellis=2 / 8x8dct=1 / cqm=0 / deadzone=21,11 / fast_pskip=1 / chroma_qp_offset=-2 / threads=3 / sliced_threads=0 / nr=0 / decimate=1 / interlaced=0 / constrained_intra=0 / bframes=9 / b_pyramid=2 / b_adapt=2 / b_bias=0 / direct=1 / weightb=1 / open_gop=0 / weightp=2 / keyint=250 / keyint_min=23 / scenecut=40 / intra_refresh=0 / rc_lookahead=67 / rc=crf / mbtree=1 / crf=18.0 / qcomp=0.70 / qpmin=0 / qpmax=51 / qpstep=4 / vbv_maxrate=50000 / vbv_bufsize=62500 / crf_max=0.0 / ip_ratio=1.40 / aq=1:1.00 / nal_hrd=none

Audio #1
Идентификатор : 2
Формат : AC-3
Формат/Информация : Audio Coding 3
Идентификатор кодека : A_AC3
Продолжительность : 1h 27mn
Вид битрейта : Constant
Битрейт : 448 Kbps
Канал(ы) : 6 channels
Расположение каналов : Front: L C R, Surround: L R, LFE
Частота : 48.0 KHz
Размер потока : 281 MiB (12%)
Заголовок : Русский (Сербин)
Язык : Russian

Audio #2
Идентификатор : 3
Формат : AC-3
Формат/Информация : Audio Coding 3
Идентификатор кодека : A_AC3
Продолжительность : 1h 27mn
Вид битрейта : Constant
Битрейт : 448 Kbps
Канал(ы) : 6 channels
Расположение каналов : Front: L C R, Surround: L R, LFE
Частота : 48.0 KHz
Размер потока : 281 MiB (12%)
Заголовок : Английский

Text
Идентификатор : 4
Формат : UTF-8
Идентификатор кодека : S_TEXT/UTF8
Идентификатор кодека/Информация : UTF-8 Plain Text
Заголовок : Русские
Язык : Russian
log x264
x264.exe: --crf 18.0 --preset veryslow --profile high --ref 9 --deblock -1:-2 --merange 32 --bframes 9 --direct spatial --qcomp 0.70 --vbv-maxrate 50000 --vbv-bufsize 62500 --rc-lookahead 67 --sar 1:1 --output "D:\AVC\Perriers Bounty\film PPP.mkv" "C:\Temp\0199.avs"

avs [info]: 1280x536p 1:1 @ 24000/1001 fps (cfr)
x264 [info]: using SAR=1/1
x264 [info]: using cpu capabilities: MMX2 SSE2Fast SSSE3 Cache64
x264 [info]: profile High, level 4.1

x264 [info]: frame I:1088 Avg QP:14.01 size: 91987
x264 [info]: frame P:26693 Avg QP:17.78 size: 25363
x264 [info]: frame B:98267 Avg QP:19.68 size: 10130
x264 [info]: consecutive B-frames: 1.9% 1.9% 5.9% 16.1% 15.9% 47.6% 5.8% 1.4% 1.2% 2.2%
x264 [info]: mb I I16..4: 5.9% 77.3% 16.9%
x264 [info]: mb P I16..4: 2.0% 8.0% 1.1% P16..4: 49.1% 23.7% 5.8% 0.4% 0.3% skip: 9.6%
x264 [info]: mb B I16..4: 0.2% 0.7% 0.1% B16..8: 39.7% 12.0% 3.0% direct: 7.9% skip:36.5% L0:48.8% L1:42.1% BI: 9.1%
x264 [info]: 8x8 transform intra:73.2% inter:71.1%
x264 [info]: coded y,uvDC,uvAC intra: 73.1% 82.7% 57.8% inter: 19.5% 34.7% 14.6%
x264 [info]: i16 v,h,dc,p: 29% 15% 10% 45%
x264 [info]: i8 v,h,dc,ddl,ddr,vr,hd,vl,hu: 12% 10% 6% 9% 13% 13% 13% 11% 12%
x264 [info]: i4 v,h,dc,ddl,ddr,vr,hd,vl,hu: 11% 10% 5% 9% 15% 13% 14% 10% 13%
x264 [info]: i8c dc,h,v,p: 44% 22% 17% 17%
x264 [info]: Weighted P-Frames: Y:2.3% UV:1.4%
x264 [info]: ref P L0: 42.0% 7.7% 18.2% 8.4% 7.0% 5.4% 4.9% 3.1% 3.0% 0.3% 0.0%
x264 [info]: ref B L0: 62.0% 14.8% 8.7% 4.9% 3.8% 3.3% 1.9% 0.6%
x264 [info]: ref B L1: 89.8% 10.2%
x264 [info]: kb/s:2697.23

x264 [total]: encoded 126048 frames, 1.77 fps, 2697.23 kb/s
загрузка...
Правила, инструкции, FAQ!!!
Торрент  Добавлен [01 апр 2014, 09:35] Скачать торрент
Скачать торрент
[ Размер 11.52 КБ / Просмотров 5 ]

Статус  
 
Размер  2.2 ГБ
Приватный: Нет (DHT включён)
.torrent скачан  0
Как залить торрент? | Как скачать Torrent? | Как смотреть и слушать онлайн?  


     Отправить личное сообщение
   
Страница 1 из 1
Показать сообщения за:  Поле сортировки  
Начать новую тему Ответить на тему

   Похожие торренты   Автор   Ответы   Просмотры   Последнее сообщение 
В этой теме нет новых непрочитанных сообщений. Скачать торрент Проверен Щедрость Перрье / Perrier's Bounty (2009) BDRemux 1080p

в форуме BD-Remux, Размер: 15.33 ГБ, Здоровье: 50%

Anonymous

0
1|2

167
0

05 авг 2014, 22:09

Anonymous Перейти к последнему сообщению

В этой теме нет новых непрочитанных сообщений. Скачать торрент Фильм с моим участием / A Film with Me in It (Йен Фитцгиббон / Ian Fitzgibbon) [2008, Ирландия, Триллер, черный юмор, DVDRip]

в форуме Триллеры, Размер: 1.37 ГБ, Здоровье: 0%

Anonymous

0
0|0

22
0

02 апр 2014, 08:25

Anonymous Перейти к последнему сообщению

В этой теме нет новых непрочитанных сообщений. Скачать торрент Короли улиц / Street Kings (Дэвид Эйер / David Ayer) [2008 г., боевик, триллер, драма, криминал, DVDRip] AVO (Гаврилов, Сербин) + original

в форуме Боевики, Размер: 1.77 ГБ, Здоровье: 100%

Anonymous

0
3|1

60
0

01 апр 2014, 09:35

Anonymous Перейти к последнему сообщению

В этой теме нет новых непрочитанных сообщений. Скачать торрент Проверен [iPad] Район №9 / District 9 (Нил Бломкамп / Neill Blomkamp)[2009, фантастика, боевик, триллер, драма, BDRip 720p]

в форуме Фильмы для iPod, iPhone, iPad, Размер: 3 ГБ, Здоровье: 100%

Гость

0
19|6

38
0

13 май 2015, 23:57

Гость Перейти к последнему сообщению

В этой теме нет новых непрочитанных сообщений. Скачать торрент Гробница дьявола (Геенна) / The Devil's Tomb (Джейсон Коннери / Jason Connery) [2009 г., ужасы, фантастика, боевик, триллер, BDRip] [720p/DVD5] DVO + Original

в форуме 720p | 1080p, Размер: 4.65 ГБ, Здоровье: 0%

Anonymous

0
0|0

45
0

25 фев 2014, 22:39

Anonymous Перейти к последнему сообщению



Сейчас этот форум просматривают: нет зарегистрированных пользователей и гости: 2


Вы не можете начинать темы
Вы не можете отвечать на сообщения
Вы не можете редактировать свои сообщения
Вы не можете удалять свои сообщения
Вы не можете добавлять вложения

Перейти:  

!ВНИМАНИЕ!
 Ресурс не предоставляет электронные версии произведений, а занимается лишь коллекционированием и каталогизацией ссылок, присылаемых и публикуемых на форуме нашими читателями. Если вы являетесь правообладателем какого-либо представленного материала и не желаете чтобы ссылка на него находилась в нашем каталоге, свяжитесь с нами и мы незамедлительно удалим её. Файлы для обмена на трекере предоставлены пользователями сайта, и администрация не несёт ответственности за их содержание. Просьба не заливать файлы, защищенные авторскими правами, а также файлы нелегального содержания!