На всех торрентах на трекере установлена скидка на скачивание в размере 100 процентов(а).
 Возможность скачивания торрента НЕ зависит от ограничений при низком ратио, низком аплоаде, требуемом ратио или требуемом аплоаде.


Начать новую тему Ответить на тему
Статистика раздачи
Размер: 7.76 ГБ | Добавлен: 31 мар 2014, 13:07 | Скачали: 163
Сидеров: 10  [0 байт/сек]    Личеров: 3  [0 байт/сек]
Пред. тема | След. тема 

Автор
Сообщение

СообщениеДобавлено: 31 мар 2014, 13:07 

Название: Клятва
Оригинальное название: The Vow
Год выпуска: 2012
Жанр: Драма, мелодрама, экранизация
Выпущено: США, Германия, Франция, Бразилия, Великобритания, Австралия, Screen Gems, Spyglass Entertainment
Режиссер: Майкл Сакси
В ролях: Рэйчел МакАдамс, Ченнинг Татум, Скотт Спидмэн, Джессика Лэнг, Сэм Нилл, Диллон Кэйси, Венди Крюсон, Лукас Брайант, Татьяна Маслани, Кристина Пешич, Рэйчел Скарстен, Бриттни Ирвин, Ким Робертс, Джо Кобден, Линдсэй Эймз, Джои Клейн, Тони Лэтэм, Мелисса Веси, Дженнифер Даусон

Перевод: Дублированный

Сюжет фильма
Сюжет основан на реальных событиях. Супруги Ким и Крикитт Карпентер все это пережили, а впоследствии написали о своей жизни книгу.

Во время медового месяца Пейдж и Лео попадают в автокатастрофу. Пока жена находится в коме, Лео не отходит от ее кровати ни на час, но возвращение девушки к жизни омрачено потерей памяти — она не узнает любимого и не помнит об их романе. И тогда Лео решает заново завоевать сердце Пейдж.



Файл
Качество: BDRip 1080p (исходник Blu-ray)
Видео: 1920x800, 9 410 Кбит/сек, 24.000 кадр/сек, AVC, x264, High@L4.1, 0.256 Бит/[Пиксели*Кадры], 2pass
Аудио 1: AC3 5.1 48 kHz 640 kbps - Дублированный
Аудио 2: AC3 5.1 48 kHz 640 kbps - English
Чаптеры: есть
Субтитры: Russian, English, English-SDH
Продолжительность: 01:43:54
Автор рипа: Сообщество:


Format : Matroska
Format version : Version 2
File size : 7.76 GiB
Duration : 1h 43mn
Overall bit rate : 10.7 Mbps
Movie name : Kljatva.(2012).BDRip.1080p.[denis100]
Encoded date : UTC 2014-03-31 08:56:42
Writing application : mkvmerge v5.8.0 ('No Sleep / Pillow') built on Sep 2 2012 15:37:04
Writing library : libebml v1.2.3 + libmatroska v1.3.0

Video
ID : 1
Format : AVC
Format/Info : Advanced Video Codec
Format profile : High@L4.1
Format settings, CABAC : Yes
Format settings, ReFrames : 5 frames
Codec ID : V_MPEG4/ISO/AVC
Duration : 1h 43mn
Bit rate : 9 410 Kbps
Width : 1 920 pixels
Height : 800 pixels
Display aspect ratio : 2.40:1
Frame rate mode : Constant
Frame rate : 23.976 fps
Color space : YUV
Chroma subsampling : 4:2:0
Bit depth : 8 bits
Scan type : Progressive
Bits/(Pixel*Frame) : 0.256
Stream size : 6.67 GiB (86%)
Title : Kljatva.(2012).BDRip.1080p.[denis100]
Writing library : x264 core 138 r2358 9e941d1
Encoding settings : cabac=1 / ref=5 / deblock=1:-3:-3 / analyse=0x3:0x133 / me=umh / subme=11 / psy=1 / psy_rd=1.00:0.10 / mixed_ref=1 / me_range=32 / chroma_me=1 / trellis=2 / 8x8dct=1 / cqm=0 / deadzone=21,11 / fast_pskip=0 / chroma_qp_offset=-3 / threads=6 / lookahead_threads=1 / sliced_threads=0 / nr=0 / decimate=1 / interlaced=0 / bluray_compat=0 / constrained_intra=0 / bframes=6 / b_pyramid=2 / b_adapt=2 / b_bias=0 / direct=3 / weightb=1 / open_gop=0 / weightp=2 / keyint=240 / keyint_min=23 / scenecut=40 / intra_refresh=0 / rc=2pass / mbtree=0 / bitrate=9410 / ratetol=1.0 / qcomp=0.60 / qpmin=0 / qpmax=69 / qpstep=4 / cplxblur=20.0 / qblur=0.5 / ip_ratio=1.40 / pb_ratio=1.30 / aq=1:0.90
Language : English
Default : Yes
Forced : No

Audio #1
ID : 2
Format : AC-3
Format/Info : Audio Coding 3
Mode extension : CM (complete main)
Format settings, Endianness : Big
Codec ID : A_AC3
Duration : 1h 43mn
Bit rate mode : Constant
Bit rate : 640 Kbps
Channel(s) : 6 channels
Channel positions : Front: L C R, Side: L R, LFE
Sampling rate : 48.0 KHz
Bit depth : 16 bits
Compression mode : Lossy
Stream size : 476 MiB (6%)
Title : Дублированный
Language : Russian
Default : Yes
Forced : No

Audio #2
ID : 3
Format : AC-3
Format/Info : Audio Coding 3
Mode extension : CM (complete main)
Format settings, Endianness : Big
Codec ID : A_AC3
Duration : 1h 43mn
Bit rate mode : Constant
Bit rate : 640 Kbps
Channel(s) : 6 channels
Channel positions : Front: L C R, Side: L R, LFE
Sampling rate : 48.0 KHz
Bit depth : 16 bits
Compression mode : Lossy
Stream size : 476 MiB (6%)
Title : English
Language : English
Default : No
Forced : No

Text #1
ID : 4
Format : UTF-8
Codec ID : S_TEXT/UTF8
Codec ID/Info : UTF-8 Plain Text
Title : Russian
Language : Russian
Default : No
Forced : No

Text #2
ID : 5
Format : UTF-8
Codec ID : S_TEXT/UTF8
Codec ID/Info : UTF-8 Plain Text
Title : English
Language : English
Default : No
Forced : No

Text #3
ID : 6
Format : UTF-8
Codec ID : S_TEXT/UTF8
Codec ID/Info : UTF-8 Plain Text
Title : English-SDH
Language : English
Default : No
Forced : No

Menu
00:00:00.000 : en:
00:05:52.226 : en:
00:12:29.373 : en:
00:19:11.692 : en:
00:24:05.068 : en:
00:30:17.607 : en:
00:35:57.612 : en:
00:40:13.786 : en:
00:46:33.832 : en:
00:52:19.761 : en:
00:59:32.568 : en:
01:05:19.415 : en:
01:11:59.814 : en:
01:20:39.501 : en:
01:29:02.962 : en:
01:34:14.774 : en:
x264 [info]: frame I:1183 Avg QP:17.72 size:245527
x264 [info]: frame P:31679 Avg QP:19.84 size: 89733
x264 [info]: frame B:116610 Avg QP:22.52 size: 35999
загрузка...
Правила, инструкции, FAQ!!!
Торрент  Добавлен [31 мар 2014, 13:07] Скачать торрент
Скачать торрент
[ Размер 39.31 КБ / Просмотров 7 ]

Статус  
 
Размер  7.76 ГБ
Приватный: Нет (DHT включён)
.torrent скачан  163
Как залить торрент? | Как скачать Torrent? | Как смотреть и слушать онлайн?  


     Отправить личное сообщение
   
Страница 1 из 1
Показать сообщения за:  Поле сортировки  
Начать новую тему Ответить на тему

   Похожие торренты   Автор   Ответы   Просмотры   Последнее сообщение 
В этой теме нет новых непрочитанных сообщений. Скачать торрент Проверен [iPad] Пленницы / Prisoners (Дени Вильнёв / Denis Villeneuve ) [2013, США, триллер, драма, криминал, BDRip, SD (576p)] MVO + Original + sub (rus, eng)

в форуме Фильмы для iPod, iPhone, iPad, Размер: 2.7 ГБ, Здоровье: 100%

Гость

0
45|15

40
0

13 май 2015, 23:58

Гость Перейти к последнему сообщению

В этой теме нет новых непрочитанных сообщений. Скачать торрент Проверен Клятва / The Vow (2012) DVDRip Для Blackberry Playbook [1024x600] и других планшетов

в форуме Видео для смартфонов и КПК, Размер: 1.66 ГБ, Здоровье: 0%

Anonymous

0
0|0

44
0

25 окт 2014, 23:29

Anonymous Перейти к последнему сообщению

В этой теме нет новых непрочитанных сообщений. Скачать торрент Проверен Coldplay - Live 2012 [2012, Alternative rock, post-Britpop, BDRip 1080p]

в форуме Концерты (HD-Video), Размер: 6.56 ГБ, Здоровье: 100%

Anonymous

0
1|0

0
0

23 окт 2016, 12:43

Anonymous Перейти к последнему сообщению

В этой теме нет новых непрочитанных сообщений. Скачать торрент Проверен После / After (2012) BDRip 1080p | L2, L1

в форуме 720p | 1080p, Размер: 7.03 ГБ, Здоровье: 100%

Гость

0
389|189

198
69

05 июл 2015, 14:37

Гость Перейти к последнему сообщению

В этой теме нет новых непрочитанных сообщений. Скачать торрент Рассказы (2012) BDRip 1080p

в форуме 720p | 1080p, Размер: 4.37 ГБ, Здоровье: 0%

Anonymous

0
0|0

58
0

20 фев 2014, 22:35

Anonymous Перейти к последнему сообщению



Сейчас этот форум просматривают: нет зарегистрированных пользователей и гости: 4


Вы не можете начинать темы
Вы не можете отвечать на сообщения
Вы не можете редактировать свои сообщения
Вы не можете удалять свои сообщения
Вы не можете добавлять вложения

Перейти:  

!ВНИМАНИЕ!
 Ресурс не предоставляет электронные версии произведений, а занимается лишь коллекционированием и каталогизацией ссылок, присылаемых и публикуемых на форуме нашими читателями. Если вы являетесь правообладателем какого-либо представленного материала и не желаете чтобы ссылка на него находилась в нашем каталоге, свяжитесь с нами и мы незамедлительно удалим её. Файлы для обмена на трекере предоставлены пользователями сайта, и администрация не несёт ответственности за их содержание. Просьба не заливать файлы, защищенные авторскими правами, а также файлы нелегального содержания!