На всех торрентах на трекере установлена скидка на скачивание в размере 100 процентов(а).
 Возможность скачивания торрента НЕ зависит от ограничений при низком ратио, низком аплоаде, требуемом ратио или требуемом аплоаде.


Начать новую тему Ответить на тему
Статистика раздачи
Размер: 7.74 ГБ | Добавлен: 31 мар 2014, 10:10 | Скачали: 135
Сидеров: 13  [0 байт/сек]    Личеров: 0  [0 байт/сек]
Пред. тема | След. тема 

Автор
Сообщение

СообщениеДобавлено: 31 мар 2014, 10:10 

Информация о фильме
    Русское название: Захватывающее время
    Оригинальное название: The Spectacular Now
    Год выхода: 2013
    Жанр: Драма, мелодрама, комедия
    Режиссер: Джеймс Понсольдт
    Выпущено: США
    Продолжительность: 01:35:03
    Перевод: Любительский (Одноголосый, закадровый) (С.Ващенко)
    В ролях: Майлз Теллер, Шейлин Вудли, Бри Ларсон, Масам Холден, Дайо Окенайи, Кайл Чандлер, Дженнифер Джейсон Ли, Ницци Файрес, Ава Лондон, Уитни Гойн


Сюжет фильма
    Саттер Кили – популярный школьник, который ни к чему не относится серьезно. Он всегда готов повеселиться, с легкостью завоевывает расположение окружающих и постоянно ходит по вечеринкам, где развлекается на полную катушку. Саттер предпочитает не задумываться о будущем и живет настоящим, не переживая ни из-за поступления в колледж, ни из-за того, что о нем подумают окружающие.
    Однажды после очередной вечеринки Саттер просыпается на газоне около дома Эйми Финеки – одноклассницы, которую он раньше не замечал. Эйми, если не брать в расчет легкость в общении, совершенно не похожа на Саттера: она точно знает, чего хочет от жизни, много читает и любит рисовать, но не считает себя лучше других и не страдает от отсутствия популярности. Саттер и Эйми неожиданно сами для себя легко находят общий язык и становятся хорошими друзьями, а потом начинают испытывать друг к другу и романтические чувства. И вне зависимости от того, есть ли у этих отношений будущее, общение друг с другом помогает им многое понять о самих себе.


Файл
    Качество: BDRip 1080p (исходник Blu-ray Disc Remux)
    Видео: 1920x800, 10405 Кбит/сек, 23,976 кадр/сек, AVC, x264, High@L4.1, 2.40:1, 0.283 Бит/[Пиксели*Кадры]
    Аудио 1: AC-3, 640 Кбит/сек, 6 канала(ов), 48,0 КГц - Одноголосый закадровый, С.Ващенко / Русский
    Аудио 2: AC-3, 640 Кбит/сек, 6 канала(ов), 48,0 КГц - Оригинал / Английский
    Субтитры: Русские | Полные, Английские | Полные
    Чаптеры (Главы): Есть



Автор Рипа: Сообщество:



Format : Matroska
Format version : Version 2
File size : 7.74 GiB
Duration : 1h 35mn
Overall bit rate : 11.7 Mbps
Movie name : Захватывающее время.(2013).BDRip.1080p.[envy]
Encoded date : UTC 2014-03-31 04:45:19
Writing application : mkvmerge v5.8.0 ('No Sleep / Pillow') built on Sep 2 2012 15:37:04
Writing library : libebml v1.2.3 + libmatroska v1.3.0

Video
ID : 1
Format : AVC
Format/Info : Advanced Video Codec
Format profile : High@L4.1
Format settings, CABAC : Yes
Format settings, ReFrames : 5 frames
Codec ID : V_MPEG4/ISO/AVC
Duration : 1h 35mn
Bit rate : 10.4 Mbps
Width : 1 920 pixels
Height : 800 pixels
Display aspect ratio : 2.40:1
Frame rate mode : Constant
Frame rate : 23.976 fps
Color space : YUV
Chroma subsampling : 4:2:0
Bit depth : 8 bits
Scan type : Progressive
Bits/(Pixel*Frame) : 0.283
Stream size : 6.74 GiB (87%)
Title : Захватывающее время.(2013).BDRip.1080p.[envy]
Writing library : x264 core 140 r2377 1ca7bb9
Encoding settings : cabac=1 / ref=5 / deblock=1:-3:-2 / analyse=0x3:0x133 / me=umh / subme=11 / psy=1 / psy_rd=1.00:0.00 / mixed_ref=1 / me_range=32 / chroma_me=1 / trellis=2 / 8x8dct=1 / cqm=0 / deadzone=21,11 / fast_pskip=0 / chroma_qp_offset=-2 / threads=12 / lookahead_threads=1 / sliced_threads=0 / nr=0 / decimate=1 / interlaced=0 / bluray_compat=0 / constrained_intra=0 / bframes=5 / b_pyramid=2 / b_adapt=2 / b_bias=0 / direct=3 / weightb=1 / open_gop=0 / weightp=2 / keyint=240 / keyint_min=23 / scenecut=40 / intra_refresh=0 / rc=2pass / mbtree=0 / bitrate=10405 / ratetol=2.0 / qcomp=0.60 / qpmin=0 / qpmax=69 / qpstep=4 / cplxblur=20.0 / qblur=0.5 / ip_ratio=1.40 / pb_ratio=1.30 / aq=2:0.80
Language : English
Default : Yes
Forced : No

Audio #1
ID : 2
Format : AC-3
Format/Info : Audio Coding 3
Mode extension : CM (complete main)
Format settings, Endianness : Big
Codec ID : A_AC3
Duration : 1h 35mn
Bit rate mode : Constant
Bit rate : 640 Kbps
Channel count : 6 channels
Channel positions : Front: L C R, Side: L R, LFE
Sampling rate : 48.0 KHz
Bit depth : 16 bits
Compression mode : Lossy
Stream size : 435 MiB (5%)
Title : AVO Vashhenko
Language : Russian
Default : Yes
Forced : No

Audio #2
ID : 3
Format : AC-3
Format/Info : Audio Coding 3
Mode extension : CM (complete main)
Format settings, Endianness : Big
Codec ID : A_AC3
Duration : 1h 35mn
Bit rate mode : Constant
Bit rate : 640 Kbps
Channel count : 6 channels
Channel positions : Front: L C R, Side: L R, LFE
Sampling rate : 48.0 KHz
Bit depth : 16 bits
Compression mode : Lossy
Stream size : 435 MiB (5%)
Title : Eng
Language : English
Default : No
Forced : No

Text #1
ID : 4
Format : UTF-8
Codec ID : S_TEXT/UTF8
Codec ID/Info : UTF-8 Plain Text
Title : rus full
Language : Russian
Default : No
Forced : No

Text #2
ID : 5
Format : UTF-8
Codec ID : S_TEXT/UTF8
Codec ID/Info : UTF-8 Plain Text
Title : eng full
Language : English
Default : No
Forced : No

Menu
00:00:00.000 : en:
00:06:19.295 : en:
00:13:07.161 : en:
00:20:16.798 : en:
00:28:03.473 : en:
00:34:48.836 : en:
00:40:39.186 : en:
00:46:48.055 : en:
00:54:09.955 : en:
01:00:50.813 : en:
01:09:21.282 : en:
01:12:14.330 : en:
01:15:49.628 : en:
01:19:33.769 : en:
01:24:04.247 : en:
01:27:09.015 : en:


При поддержке:
загрузка...
Правила, инструкции, FAQ!!!
Торрент  Добавлен [31 мар 2014, 10:10] Скачать торрент
Скачать торрент
[ Размер 39.25 КБ / Просмотров 3 ]

Статус  
 
Размер  7.74 ГБ
Приватный: Нет (DHT включён)
.torrent скачан  135
Как залить торрент? | Как скачать Torrent? | Как смотреть и слушать онлайн?  


     Отправить личное сообщение
   
Страница 1 из 1
Показать сообщения за:  Поле сортировки  
Начать новую тему Ответить на тему

   Похожие торренты   Автор   Ответы   Просмотры   Последнее сообщение 
В этой теме нет новых непрочитанных сообщений. Скачать торрент Проверен Захватывающее время / The Spectacular Now (2013) BDRip 720p | iTunes

в форуме 720p | 1080p, Размер: 6.56 ГБ, Здоровье: 100%

Гость

0
71|16

170
351

02 дек 2014, 12:37

Гость Перейти к последнему сообщению

В этой теме нет новых непрочитанных сообщений. Скачать торрент Захватывающее время / The Spectacular Now (2013) HDRip | L1

в форуме Драмы, Мелодрамы, Размер: 1.37 ГБ, Здоровье: 0%

Anonymous

0
0|0

315
0

15 янв 2014, 18:01

Anonymous Перейти к последнему сообщению

В этой теме нет новых непрочитанных сообщений. Скачать торрент Захватывающее время / The Spectacular Now (2013) HDRip | P

в форуме Драмы, Мелодрамы, Размер: 745.17 МБ, Здоровье: 0%

Anonymous

0
0|0

100
0

12 фев 2014, 15:05

Anonymous Перейти к последнему сообщению

В этой теме нет новых непрочитанных сообщений. Скачать торрент Проверен Feuertanz Festival 2013 [2013, Folk Rock/Metal, BDRip 1080p]

в форуме Концерты (HD-Video), Размер: 9.84 ГБ, Здоровье: 100%

Anonymous

0
2|1

0
0

23 окт 2016, 13:38

Anonymous Перейти к последнему сообщению

В этой теме нет новых непрочитанных сообщений. Скачать торрент Проверен Mylene Farmer - Timeless 2013 Le Film (2013) BDRip 1080p

в форуме Концерты (HD-Video), Размер: 11.68 ГБ, Здоровье: 100%

Anonymous

0
25|2

135
46

19 май 2014, 18:48

Anonymous Перейти к последнему сообщению



Сейчас этот форум просматривают: нет зарегистрированных пользователей и гости: 2


Вы не можете начинать темы
Вы не можете отвечать на сообщения
Вы не можете редактировать свои сообщения
Вы не можете удалять свои сообщения
Вы не можете добавлять вложения

Перейти:  

!ВНИМАНИЕ!
 Ресурс не предоставляет электронные версии произведений, а занимается лишь коллекционированием и каталогизацией ссылок, присылаемых и публикуемых на форуме нашими читателями. Если вы являетесь правообладателем какого-либо представленного материала и не желаете чтобы ссылка на него находилась в нашем каталоге, свяжитесь с нами и мы незамедлительно удалим её. Файлы для обмена на трекере предоставлены пользователями сайта, и администрация не несёт ответственности за их содержание. Просьба не заливать файлы, защищенные авторскими правами, а также файлы нелегального содержания!