На всех торрентах на трекере установлена скидка на скачивание в размере 100 процентов(а).
 Возможность скачивания торрента НЕ зависит от ограничений при низком ратио, низком аплоаде, требуемом ратио или требуемом аплоаде.


Начать новую тему Ответить на тему
Статистика раздачи
Размер: 4.51 ГБ | Добавлен: 30 мар 2014, 23:24 | Скачали: 23
Сидеров: 2  [0 байт/сек]    Личеров: 1  [0 байт/сек]
Пред. тема | След. тема 

Автор
Сообщение

СообщениеДобавлено: 30 мар 2014, 23:24 

Название: Счастливчик
Оригинальное название: Lucky
Год выхода: 2011
Жанр: триллер
Режиссер: Джил Кэйтс мл.

В ролях: Колин Хэнкс, Энн-Маргрет, Джеффри Тэмбор, Адам Хэррингтон, Мими Роджерс, Эллисон Маки, Том Амандес, Мишель Дэвидсон, Оливия Сэтер, Эрик Кирхбергер

О фильме:
Милый и застенчивый парень по имени Бен уже давно и безнадежно влюблен в блондинку Люси. Они знакомы с самого детства и работают вместе, но, увы, девушка не отвечает взаимностью, предпочитая мужчин другого сорта: она без ума от собственного босса и крутит с ним роман. В один прекрасный день начальник сообщает своей секретарше, что между ними все кончено. Люси в отчаянии. Но, как известно, если в одном месте что-то убывает, то в другом прибывает. Так и есть: придя домой, Бен узнает, что стал победителем лотереи. Правда, счастливый билет достался ему весьма оригинальным способом - он убил девушку, которая его купила. Причина убийства тоже весьма странная - жертва виновата лишь в том, что похожа на Люси.



Выпущено: США
Продолжительность: 01:43:53
Озвучивание: Профессиональное (многоголосое) [online movies - IVI]


Формат: MKV
Качество: BDRip 720p [UNTOUCHABLES]
Видео: 5576 kb/s, 1280x544
Аудио: Russian: AC3, 192 kb/s (2 ch) / English: AC3, 448 kb/s (6 ch)
Субтитры: English

Скачать: Сэмпл

Релиз группы:




Общее
Lucky.2011.Blu.Ray.720p.CINEMANIA.mkv
Формат : Matroska
Версия формата : Version 4 / Version 2
Размер файла : 4,51 Гбайт
Продолжительность : 1 ч. 43 м.
Общий поток : 6217 Кбит/сек
Название фильма : Release Group CINEMANIA
Дата кодирования : UTC 2014-03-30 14:38:56
Программа кодирования : mkvmerge v6.8.0 ('Theme for Great Cities') 64bit built on Mar 2 2014 21:34:26
Библиотека кодирования : libebml v1.3.0 + libmatroska v1.4.1

Видео
Идентификатор : 1
Формат : AVC
Формат/Информация : Advanced Video Codec
Профиль формата : High@L4.1
Параметр CABAC формата : Да
Параметр ReFrames формата : 5 кадров
Идентификатор кодека : V_MPEG4/ISO/AVC
Продолжительность : 1 ч. 43 м.
Битрейт : 5576 Кбит/сек
Ширина : 1280 пикселей
Высота : 544 пикселя
Соотношение сторон : 2,35:1
Режим частоты кадров : Постоянный
Частота кадров : 23,976 кадра/сек
Цветовое пространство : YUV
Субдискретизация насыщенности : 4:2:0
Битовая глубина : 8 бит
Тип развёртки : Прогрессивная
Бит/(Пиксели*Кадры) : 0.334
Размер потока : 3,96 Гбайт (88%)
Заголовок : Release Group CINEMANIA
Библиотека кодирования : x264 core 119 r2106 07efeb4
Настройки программы : cabac=1 / ref=5 / deblock=1:-1:-1 / analyse=0x3:0x112 / me=umh / subme=7 / psy=1 / psy_rd=1.00:0.00 / mixed_ref=1 / me_range=16 / chroma_me=1 / trellis=1 / 8x8dct=1 / cqm=0 / deadzone=21,11 / fast_pskip=0 / chroma_qp_offset=-2 / threads=12 / sliced_threads=0 / nr=0 / decimate=1 / interlaced=0 / bluray_compat=0 / constrained_intra=0 / bframes=3 / b_pyramid=2 / b_adapt=2 / b_bias=0 / direct=1 / weightb=1 / open_gop=0 / weightp=2 / keyint=250 / keyint_min=23 / scenecut=40 / intra_refresh=0 / rc_lookahead=40 / rc=2pass / mbtree=1 / bitrate=5576 / ratetol=1.0 / qcomp=0.60 / qpmin=0 / qpmax=69 / qpstep=4 / cplxblur=20.0 / qblur=0.5 / ip_ratio=1.40 / aq=1:1.00
Язык : English
Default : Да
Forced : Нет

Аудио #1
Идентификатор : 2
Формат : AC-3
Формат/Информация : Audio Coding 3
Расширение режима : CM (complete main)
Параметр Endianness формата : Big
Идентификатор кодека : A_AC3
Продолжительность : 1 ч. 43 м.
Вид битрейта : Постоянный
Битрейт : 192 Кбит/сек
Каналы : 2 канала
Расположение каналов : Front: L R
Частота : 48,0 КГц
Битовая глубина : 16 бит
Метод сжатия : С потерями
Размер потока : 143 Мбайт (3%)
Заголовок : IVI
Язык : Russian
Default : Да
Forced : Да

Аудио #2
Идентификатор : 3
Формат : AC-3
Формат/Информация : Audio Coding 3
Расширение режима : CM (complete main)
Параметр Endianness формата : Big
Идентификатор кодека : A_AC3
Продолжительность : 1 ч. 43 м.
Вид битрейта : Постоянный
Битрейт : 448 Кбит/сек
Каналы : 6 каналов
Расположение каналов : Front: L C R, Side: L R, LFE
Частота : 48,0 КГц
Битовая глубина : 16 бит
Метод сжатия : С потерями
Размер потока : 333 Мбайт (7%)
Язык : English
Default : Нет
Forced : Нет

Текст
Идентификатор : 4
Формат : UTF-8
Идентификатор кодека : S_TEXT/UTF8
Идентификатор кодека/Информация : UTF-8 Plain Text
Язык : English
Default : Нет
Forced : Нет
загрузка...
Правила, инструкции, FAQ!!!
Торрент  Добавлен [30 мар 2014, 23:24] Скачать торрент
Скачать торрент
[ Размер 23.13 КБ / Просмотров 5 ]

Статус  
 
Размер  4.51 ГБ
Приватный: Нет (DHT включён)
.torrent скачан  23
Как залить торрент? | Как скачать Torrent? | Как смотреть и слушать онлайн?  


     Отправить личное сообщение
   
Страница 1 из 1
Показать сообщения за:  Поле сортировки  
Начать новую тему Ответить на тему

   Похожие торренты   Автор   Ответы   Просмотры   Последнее сообщение 
В этой теме нет новых непрочитанных сообщений. Скачать торрент Проверен Счастливчик Гилмор / Happy Gilmore (1996) BDRip 720p

в форуме 720p | 1080p, Размер: 4.24 ГБ, Здоровье: 100%

Гость

0
44|3

66
22

16 ноя 2015, 00:05

Гость Перейти к последнему сообщению

В этой теме нет новых непрочитанных сообщений. Скачать торрент Проверен Счастливчик Гилмор / Happy Gilmore (1996) BDRip-AVC

в форуме Комедии, Размер: 2.96 ГБ, Здоровье: 100%

Гость

0
30|2

390
90

15 ноя 2015, 23:57

Гость Перейти к последнему сообщению

В этой теме нет новых непрочитанных сообщений. Скачать торрент Проверен (Blues) Lucky Peterson - Lucky Strikes! - 1989, APE (image+.cue), lossless

в форуме Blues (Texas, Chicago, Modern and Others), Размер: 225.05 МБ, Здоровье: 100%

Anonymous

0
5|2

2
0

15 окт 2016, 21:30

Anonymous Перейти к последнему сообщению

В этой теме нет новых непрочитанных сообщений. Скачать торрент Проверен Фимфарум - В третий раз повезло в 3Д / Fimfarum - The Third Time Lucky 3D (Власта Поспислова , Давид Сукуп, Кристина Дуфкова / Vlasta Pospisilova, David Sukup, Kristina Dufkova) [2011, Мультфильм, BDrip-AVC] Half OverUnder / Вертикальная анаморфная с

в форуме 3D Мультфильмы, Размер: 9.76 ГБ, Здоровье: 0%

Anonymous

0
0|0

2
0

07 сен 2016, 17:37

Anonymous Перейти к последнему сообщению

В этой теме нет новых непрочитанных сообщений. Скачать торрент Проверен (Blues) Lucky Peterson - Lucky Peterson - 1999, FLAC (tracks+.cue), lossless

в форуме Blues (Texas, Chicago, Modern and Others), Размер: 312.39 МБ, Здоровье: 100%

Anonymous

0
5|1

0
0

15 окт 2016, 21:29

Anonymous Перейти к последнему сообщению



Сейчас этот форум просматривают: нет зарегистрированных пользователей и гости: 1


Вы не можете начинать темы
Вы не можете отвечать на сообщения
Вы не можете редактировать свои сообщения
Вы не можете удалять свои сообщения
Вы не можете добавлять вложения

Перейти:  

!ВНИМАНИЕ!
 Ресурс не предоставляет электронные версии произведений, а занимается лишь коллекционированием и каталогизацией ссылок, присылаемых и публикуемых на форуме нашими читателями. Если вы являетесь правообладателем какого-либо представленного материала и не желаете чтобы ссылка на него находилась в нашем каталоге, свяжитесь с нами и мы незамедлительно удалим её. Файлы для обмена на трекере предоставлены пользователями сайта, и администрация не несёт ответственности за их содержание. Просьба не заливать файлы, защищенные авторскими правами, а также файлы нелегального содержания!