На всех торрентах на трекере установлена скидка на скачивание в размере 100 процентов(а).
 Возможность скачивания торрента НЕ зависит от ограничений при низком ратио, низком аплоаде, требуемом ратио или требуемом аплоаде.


Начать новую тему Ответить на тему
Статистика раздачи
Размер: 5.79 ГБ | Добавлен: 30 мар 2014, 23:15 | Скачали: 2
Сидеров: 1  [0 байт/сек]    Личеров: 1  [0 байт/сек]
Пред. тема | След. тема 

Автор
Сообщение

СообщениеДобавлено: 30 мар 2014, 23:15 

Название: Свидания в Париже
Оригинальное название: Les Rendez-vous de Paris
Год выхода: 1995
Жанр: Мелодрама, комедия
Режиссер: Эрик Ромер

В ролях: Клара Беллар, Вероника Йоханссон, Антуан Баслер, Малкольм Конрат, Майкл Крафт

О фильме:
Фильм состоит из 3 отдельных новелл, действие которых происходит на улицах, скверах и музее Парижа. «Свидание в Париже может оказаться приятной неожиданностью или обернуться недоразумением», — поют уличные музыканты. В первой новелле обычная неприятность (украденный кошелек) позволяют Эстер разобраться в своих взаимоотношениях с Горацио. Во второй новелле флирт и любовь ходят рука об руку и кому-то одному в конце концов будет больно. В третьей новелле художник влюбляется в обычную прохожую девушку и болтает с ней о своих женщинах и картинах.



Страна: Франция / Canal+ [fr], Compagnie Eric Rohmer (CER)
Продолжительность: 01:34:21
Перевод: Авторский одноголосый (Андрей Дольский)


Качество: BDRip 720p
Видео: MPEG-4 AVC, 7828 Кбит/с, 1200x720, 25.000 кадр/с
Звук: Русский (AC3, 2 ch, 192 Кбит/с), французский (DTS, 1 ch, 755 Кбит/с)
Субтитры: Английские

Семпл

Format : Matroska
Format version : Version 4 / Version 2
File size : 5.79 GiB
Duration : 1h 34mn
Overall bit rate : 8 791 Kbps
Movie name : -=MediaClub - Odessit=-
Encoded date : UTC 2014-03-30 13:00:49
Writing application : mkvmerge v6.8.0 ('Theme for Great Cities') 64bit built on Mar 2 2014 21:34:26
Writing library : libebml v1.3.0 + libmatroska v1.4.1

Video
ID : 1
Format : AVC
Format/Info : Advanced Video Codec
Format profile : High@L4.1
Format settings, CABAC : Yes
Format settings, ReFrames : 9 frames
Codec ID : V_MPEG4/ISO/AVC
Duration : 1h 34mn
Bit rate : 7 828 Kbps
Width : 1 200 pixels
Height : 720 pixels
Display aspect ratio : 1.667
Frame rate : 25.000 fps
Color space : YUV
Chroma subsampling : 4:2:0
Bit depth : 8 bits
Scan type : Progressive
Bits/(Pixel*Frame) : 0.362
Stream size : 5.05 GiB (87%)
Writing library : x264 core 142 r2409+42 04be48a tMod [8-bit@4:2:0 X86_64]
Encoding settings : cabac=1 / ref=9 / deblock=1:-3:-3 / analyse=0x3:0x133 / me=umh / subme=11 / psy=1 / fade_compensate=0.00 / psy_rd=1.00:0.15 / mixed_ref=1 / me_range=32 / chroma_me=1 / trellis=2 / 8x8dct=1 / cqm=0 / deadzone=21,11 / fast_pskip=0 / chroma_qp_offset=-3 / threads=6 / lookahead_threads=1 / sliced_threads=0 / nr=0 / decimate=0 / interlaced=0 / bluray_compat=0 / constrained_intra=0 / fgo=0 / bframes=8 / b_pyramid=2 / b_adapt=2 / b_bias=0 / direct=3 / weightb=1 / open_gop=0 / weightp=2 / keyint=240 / keyint_min=24 / scenecut=40 / intra_refresh=0 / rc=2pass / mbtree=0 / bitrate=7828 / ratetol=1.0 / qcomp=0.60 / qpmin=0:0:0 / qpmax=69:69:69 / qpstep=4 / cplxblur=20.0 / qblur=0.5 / ip_ratio=1.40 / pb_ratio=1.30 / aq=2:0.80 / aq-sensitivity=10.00 / aq-factor=1.00:1.00:1.00 / aq2=0 / aq3=0
Language : English

Audio #1
ID : 2
Format : AC-3
Format/Info : Audio Coding 3
Mode extension : CM (complete main)
Codec ID : A_AC3
Duration : 1h 34mn
Bit rate mode : Constant
Bit rate : 192 Kbps
Channel(s) : 2 channels
Channel positions : Front: L R
Sampling rate : 48.0 KHz
Bit depth : 16 bits
Compression mode : Lossy
Stream size : 130 MiB (2%)
Title : Авторский одноголосый (Андрей Дольский)
Language : Russian

Audio #2
ID : 3
Format : DTS
Format/Info : Digital Theater Systems
Codec ID : A_DTS
Duration : 1h 34mn
Bit rate mode : Constant
Bit rate : 755 Kbps
Channel(s) : 1 channel
Channel positions : Front: C
Sampling rate : 48.0 KHz
Bit depth : 16 bits
Compression mode : Lossy
Stream size : 509 MiB (9%)
Language : French

Text
ID : 4
Format : UTF-8
Codec ID : S_TEXT/UTF8
Codec ID/Info : UTF-8 Plain Text
Language : English

Menu
00:00:00.000 : fr:01. Générique
00:00:22.300 : fr:02. Les rendez-vous de 7 heures
00:05:39.460 : fr:03. Vers la Tour Eiffel
00:11:30.980 : fr:04. Le lendemain...
00:20:25.780 : fr:05. Beaubourg
00:27:31.740 : fr:06. Les bancs de Paris
00:39:19.020 : fr:07. Belleville
00:47:57.780 : fr:08. Jardins du Trocadéro
00:55:07.820 : fr:09. L'hôtel de Monmartre
00:58:41.820 : fr:10. Mère et enfant 1907
01:09:04.740 : fr:11. Le musée
01:18:09.620 : fr:12. Dix minutes de perdues?
01:30:14.780 : fr:13. En pleine peinture
01:33:13.540 : fr:14. Générique de fin

x264 [info]: frame I:748 Avg QP:16.52 size:152259
x264 [info]: frame P:36620 Avg QP:18.78 size: 74103
x264 [info]: frame B:104165 Avg QP:20.62 size: 26036
x264 [info]: consecutive B-frames: 5.0% 1.9% 12.5% 23.6% 28.1% 28.1% 0.8% 0.0% 0.1%
x264 [info]: mb I I16..4: 10.1% 75.5% 14.4%
x264 [info]: mb P I16..4: 0.2% 24.9% 1.3% P16..4: 23.9% 32.4% 14.4% 2.5% 0.1% skip: 0.3%
x264 [info]: mb B I16..4: 0.0% 2.4% 0.1% B16..8: 36.5% 28.4% 5.8% direct: 8.8% skip:17.9% L0:34.4% L1:39.3% BI:26.3%
x264 [info]: 8x8 transform intra:94.0% inter:50.3%
x264 [info]: direct mvs spatial:99.2% temporal:0.8%
x264 [info]: coded y,uvDC,uvAC intra: 99.5% 79.2% 57.1% inter: 47.2% 25.3% 9.8%
x264 [info]: i16 v,h,dc,p: 4% 2% 40% 54%
x264 [info]: i8 v,h,dc,ddl,ddr,vr,hd,vl,hu: 11% 8% 13% 9% 13% 11% 11% 11% 13%
x264 [info]: i4 v,h,dc,ddl,ddr,vr,hd,vl,hu: 8% 6% 4% 9% 17% 15% 15% 12% 13%
x264 [info]: i8c dc,h,v,p: 39% 25% 21% 15%
x264 [info]: Weighted P-Frames: Y:4.6% UV:1.2%
x264 [info]: ref P L0: 42.8% 12.6% 17.2% 6.2% 6.5% 4.1% 4.5% 2.5% 2.9% 0.6% 0.0%
x264 [info]: ref B L0: 88.6% 5.6% 2.1% 1.3% 0.9% 0.8% 0.5% 0.3%
x264 [info]: ref B L1: 98.7% 1.3%
x264 [info]: kb/s:7827.97



Релиз от:

• За исходник спасибо DarLeg
загрузка...
Правила, инструкции, FAQ!!!
Торрент  Добавлен [30 мар 2014, 23:15] Скачать торрент
Скачать торрент
[ Размер 29.58 КБ / Просмотров 14 ]

Статус  
 
Размер  5.79 ГБ
Приватный: Нет (DHT включён)
.torrent скачан  2
Как залить торрент? | Как скачать Torrent? | Как смотреть и слушать онлайн?  


     Отправить личное сообщение
   
Страница 1 из 1
Показать сообщения за:  Поле сортировки  
Начать новую тему Ответить на тему

   Похожие торренты   Автор   Ответы   Просмотры   Последнее сообщение 
В этой теме нет новых непрочитанных сообщений. Скачать торрент Проверен Монстр в Париже в 3Д / Un monstre a Paris / A Monster in Paris 3D (Бибо Бержерон / Bibo Bergeron) [2011, Мультфильм, Фэнтези, Приключения, Музыка, BDrip-AVC] Half OverUnder / Вертикальная анаморфная стереопара

в форуме HD-Video в 3D, Размер: 5.22 ГБ, Здоровье: 100%

Anonymous

0
52|18

55
0

02 ноя 2014, 09:49

Anonymous Перейти к последнему сообщению

В этой теме нет новых непрочитанных сообщений. Скачать торрент Проверен [480x320] Монстр в Париже / Un monstre à Paris (2011) BDRip

в форуме Видео для смартфонов и КПК, Размер: 738.52 МБ, Здоровье: 100%

Anonymous

0
1|1

41
0

25 окт 2014, 23:27

Anonymous Перейти к последнему сообщению

В этой теме нет новых непрочитанных сообщений. Скачать торрент Проверен In-Grid - Rendez Vous (2003) [FLAC|Lossless]<Pop>

в форуме Зарубежная музыка, Размер: 353.69 МБ, Здоровье: 0%

Anonymous

0
0|0

25
0

12 янв 2015, 20:57

Anonymous Перейти к последнему сообщению

В этой теме нет новых непрочитанных сообщений. Скачать торрент Проверен (aor) Cindy Valentine - Secret Rendez-Vous - 1987, MP3, 192 kbps

в форуме AOR (Melodic Hard Rock, Arena rock), Размер: 56.05 МБ, Здоровье: 100%

Anonymous

0
3|1

0
0

08 окт 2016, 11:21

Anonymous Перейти к последнему сообщению

В этой теме нет новых непрочитанных сообщений. Скачать торрент Проверен (Pop) Patricia Kaas - Rendez-Vous - 1998, APE (image + .cue), lossless

в форуме Зарубежная музыка, Размер: 632.05 МБ, Здоровье: 0%

Anonymous

0
0|0

8
0

12 авг 2016, 18:28

Anonymous Перейти к последнему сообщению



Сейчас этот форум просматривают: нет зарегистрированных пользователей и гости: 1


Вы не можете начинать темы
Вы не можете отвечать на сообщения
Вы не можете редактировать свои сообщения
Вы не можете удалять свои сообщения
Вы не можете добавлять вложения

Перейти:  

!ВНИМАНИЕ!
 Ресурс не предоставляет электронные версии произведений, а занимается лишь коллекционированием и каталогизацией ссылок, присылаемых и публикуемых на форуме нашими читателями. Если вы являетесь правообладателем какого-либо представленного материала и не желаете чтобы ссылка на него находилась в нашем каталоге, свяжитесь с нами и мы незамедлительно удалим её. Файлы для обмена на трекере предоставлены пользователями сайта, и администрация не несёт ответственности за их содержание. Просьба не заливать файлы, защищенные авторскими правами, а также файлы нелегального содержания!