На всех торрентах на трекере установлена скидка на скачивание в размере 100 процентов(а).
 Возможность скачивания торрента НЕ зависит от ограничений при низком ратио, низком аплоаде, требуемом ратио или требуемом аплоаде.


Начать новую тему Ответить на тему
Статистика раздачи
Размер: 2.88 ГБ | Добавлен: 30 мар 2014, 16:06 | Скачали: 4
Сидеров: 0  [0 байт/сек]    Личеров: 0  [0 байт/сек]
Пред. тема | След. тема 

Автор
Сообщение

СообщениеДобавлено: 30 мар 2014, 16:06 

Название: Лётчик Киви
Оригинальное название: Kiwi Flyer / Derby Dogs
Год выхода: 2012
Жанр: комедия, драма, семейный
Режиссер: Тони Симпсон

В ролях: Эдвард Холл, Тикирау Хэтауэй, Винс Мартин, Тэнди Райт, Даи Хенвуд, Майер ван Гослига, Дуг Коллинг, Джейн Уинтер, Дэвид де Тьери, Мэтт Френч

О фильме:
Бен — самый обычный подросток, который всегда гордился своим дедом и хотел быть похожим на него. Однажды он решает принять участие в гонках на вагонетках, в которых когда-то его дед занимал призовые места. Этим желанием очень проникся отец мальчика, который решил сделать все возможное для того, чтобы мечта его ребенка сбылась. Он лично начал конструировать оригинальную вагонетку, которой дал название «Летающая киви». Однако принять участие в гонках у Бена не получилось, так как отец, возвращаясь с работы домой, попал в страшную аварию, после которой он погиб. Спустя год после этой трагедии, парень вновь собирается принять участие в гонках и посвятить свое выступление памяти отца...



Выпущено: Новая Зеландия
Продолжительность: 01:27:04
Озвучивание: Профессиональное (двухголосое) [Нтв+]


Формат: MKV
Качество: BDRip 720p [RUSTED]
Видео: 4149 kb/s, 1280x720
Аудио: Russian: AC3, 192 kb/s (2 ch) / English: AC3, 384 kb/s (6 ch)
Субтитры: Russian [kitmur], English
Дополнительно: Сохранены оригинальные чаптеры как на Blu-Ray

Скачать: Сэмпл

Релиз группы:




Общее
Derby.Dogs.2012.Blu.Ray.720p.CINEMANIA.mkv
Формат : Matroska
Версия формата : Version 4 / Version 2
Размер файла : 2,88 Гбайт
Продолжительность : 1 ч. 27 м.
Общий поток : 4727 Кбит/сек
Название фильма : Release Group CINEMANIA
Дата кодирования : UTC 2014-03-30 12:15:03
Программа кодирования : mkvmerge v6.8.0 ('Theme for Great Cities') 64bit built on Mar 2 2014 21:34:26
Библиотека кодирования : libebml v1.3.0 + libmatroska v1.4.1

Видео
Идентификатор : 1
Формат : AVC
Формат/Информация : Advanced Video Codec
Профиль формата : High@L4.1
Параметр CABAC формата : Да
Параметр ReFrames формата : 5 кадров
Идентификатор кодека : V_MPEG4/ISO/AVC
Продолжительность : 1 ч. 27 м.
Битрейт : 4149 Кбит/сек
Ширина : 1280 пикселей
Высота : 720 пикселей
Соотношение сторон : 16:9
Режим частоты кадров : Постоянный
Частота кадров : 23,976 кадра/сек
Цветовое пространство : YUV
Субдискретизация насыщенности : 4:2:0
Битовая глубина : 8 бит
Тип развёртки : Прогрессивная
Бит/(Пиксели*Кадры) : 0.188
Размер потока : 2,47 Гбайт (86%)
Заголовок : Release Group CINEMANIA
Библиотека кодирования : x264 core 140 r2377 1ca7bb9
Настройки программы : cabac=1 / ref=5 / deblock=1:-1:-1 / analyse=0x3:0x133 / me=umh / subme=8 / psy=1 / psy_rd=1.00:0.15 / mixed_ref=1 / me_range=16 / chroma_me=1 / trellis=1 / 8x8dct=1 / cqm=0 / deadzone=21,11 / fast_pskip=0 / chroma_qp_offset=-4 / threads=12 / lookahead_threads=2 / sliced_threads=0 / nr=0 / decimate=1 / interlaced=0 / bluray_compat=0 / constrained_intra=0 / bframes=3 / b_pyramid=2 / b_adapt=2 / b_bias=0 / direct=3 / weightb=1 / open_gop=0 / weightp=2 / keyint=230 / keyint_min=22 / scenecut=40 / intra_refresh=0 / rc_lookahead=50 / rc=2pass / mbtree=1 / bitrate=4149 / ratetol=1.0 / qcomp=0.60 / qpmin=10 / qpmax=69 / qpstep=4 / cplxblur=20.0 / qblur=0.5 / ip_ratio=1.40 / aq=1:1.00
Язык : English
Default : Да
Forced : Нет

Аудио #1
Идентификатор : 2
Формат : AC-3
Формат/Информация : Audio Coding 3
Расширение режима : CM (complete main)
Параметр Endianness формата : Big
Идентификатор кодека : A_AC3
Продолжительность : 1 ч. 27 м.
Вид битрейта : Постоянный
Битрейт : 192 Кбит/сек
Каналы : 2 канала
Расположение каналов : Front: L R
Частота : 48,0 КГц
Битовая глубина : 16 бит
Метод сжатия : С потерями
Размер потока : 120 Мбайт (4%)
Заголовок : Нтв+
Язык : Russian
Default : Да
Forced : Да

Аудио #2
Идентификатор : 3
Формат : AC-3
Формат/Информация : Audio Coding 3
Расширение режима : CM (complete main)
Параметр Endianness формата : Big
Идентификатор кодека : A_AC3
Продолжительность : 1 ч. 27 м.
Вид битрейта : Постоянный
Битрейт : 384 Кбит/сек
Каналы : 6 каналов
Расположение каналов : Front: L C R, Side: L R, LFE
Частота : 48,0 КГц
Битовая глубина : 16 бит
Метод сжатия : С потерями
Размер потока : 239 Мбайт (8%)
Язык : English
Default : Нет
Forced : Нет

Текст #1
Идентификатор : 4
Формат : UTF-8
Идентификатор кодека : S_TEXT/UTF8
Идентификатор кодека/Информация : UTF-8 Plain Text
Заголовок : kitmur
Язык : Russian
Default : Нет
Forced : Нет

Текст #2
Идентификатор : 5
Формат : UTF-8
Идентификатор кодека : S_TEXT/UTF8
Идентификатор кодека/Информация : UTF-8 Plain Text
Язык : English
Default : Нет
Forced : Нет

Меню
00:00:00.000 : en:00:00:00.000
00:10:17.533 : en:00:10:17.533
00:21:58.817 : en:00:21:58.817
00:30:52.392 : en:00:30:52.392
00:40:14.662 : en:00:40:14.662
00:50:21.059 : en:00:50:21.059
01:02:14.647 : en:01:02:14.647
01:14:19.580 : en:01:14:19.580
01:24:13.423 : en:01:24:13.423
загрузка...
Правила, инструкции, FAQ!!!
Торрент  Добавлен [30 мар 2014, 16:06] Скачать торрент
Скачать торрент
[ Размер 14.95 КБ / Просмотров 5 ]

Статус  
 
Размер  2.88 ГБ
Приватный: Нет (DHT включён)
.torrent скачан  4
Как залить торрент? | Как скачать Torrent? | Как смотреть и слушать онлайн?  


     Отправить личное сообщение
   
Страница 1 из 1
Показать сообщения за:  Поле сортировки  
Начать новую тему Ответить на тему

   Похожие торренты   Автор   Ответы   Просмотры   Последнее сообщение 
В этой теме нет новых непрочитанных сообщений. Скачать торрент Проверен (Garage Blues Rock) The Derby Girls - The Derby Girls (Debut Demo EP) - 2014, MP3, 320 kbps

в форуме Classic Rock & Hard Rock, Размер: 59.95 МБ, Здоровье: 0%

Anonymous

0
0|0

0
0

13 ноя 2016, 14:04

Anonymous Перейти к последнему сообщению

В этой теме нет новых непрочитанных сообщений. Скачать торрент Проверен (Hard Rock) Midnight Flyer - Midnight Flyer - 1981 (Airmail Recordings AIRAC-1689 Japan 24-bit Remaster 2013), FLAC (image+.cue), lossless

в форуме Classic Rock & Hard Rock, Размер: 550.01 МБ, Здоровье: 0%

Anonymous

0
0|0

2
0

03 сен 2016, 22:37

Anonymous Перейти к последнему сообщению

В этой теме нет новых непрочитанных сообщений. Скачать торрент Проверен Парни со стволами / War Dogs (2016) BDRip 720p | iTunes

в форуме 720p | 1080p, Размер: 4.94 ГБ, Здоровье: 100%

Гость

0
58|1

47
2

13 ноя 2016, 01:39

Гость Перейти к последнему сообщению

В этой теме нет новых непрочитанных сообщений. Скачать торрент Проверен (Rock,Hard Rock) Midnight Flyer - Midnight Flyer(1981) - Remaster 2005, MP3, 320 kbps

в форуме Classic Rock & Hard Rock, Размер: 108.98 МБ, Здоровье: 0%

Anonymous

0
0|0

0
0

13 ноя 2016, 19:57

Anonymous Перейти к последнему сообщению

В этой теме нет новых непрочитанных сообщений. Скачать торрент Проверен Editors of Kiwi Magazine - Allergy-Friendly Food for Families / Гипоаллергенные семейные рецепты [2012, MOBI, ENG]

в форуме Кулинария, Размер: 5.34 МБ, Здоровье: 0%

Anonymous

0
0|0

0
0

18 окт 2016, 23:54

Anonymous Перейти к последнему сообщению



Сейчас этот форум просматривают: нет зарегистрированных пользователей и гости: 1


Вы не можете начинать темы
Вы не можете отвечать на сообщения
Вы не можете редактировать свои сообщения
Вы не можете удалять свои сообщения
Вы не можете добавлять вложения

Перейти:  

!ВНИМАНИЕ!
 Ресурс не предоставляет электронные версии произведений, а занимается лишь коллекционированием и каталогизацией ссылок, присылаемых и публикуемых на форуме нашими читателями. Если вы являетесь правообладателем какого-либо представленного материала и не желаете чтобы ссылка на него находилась в нашем каталоге, свяжитесь с нами и мы незамедлительно удалим её. Файлы для обмена на трекере предоставлены пользователями сайта, и администрация не несёт ответственности за их содержание. Просьба не заливать файлы, защищенные авторскими правами, а также файлы нелегального содержания!