На всех торрентах на трекере установлена скидка на скачивание в размере 100 процентов(а).
 Возможность скачивания торрента НЕ зависит от ограничений при низком ратио, низком аплоаде, требуемом ратио или требуемом аплоаде.


Начать новую тему Ответить на тему
Статистика раздачи
Размер: 6.68 ГБ | Добавлен: 29 мар 2014, 09:51 | Скачали: 0
Сидеров: 0  [0 байт/сек]    Личеров: 0  [0 байт/сек]
Пред. тема | След. тема 

Автор
Сообщение

СообщениеДобавлено: 29 мар 2014, 09:51 

Вкратце:
Пожилые супруги Ник и Мэг Берроуз в тридцатую годовщину своей свадьбы решают посетить Париж, где когда-то провели медовый месяц. Здесь они надеются добавить немного любви и романтики в свои чувства, угасшие со временем. У них есть всего пара дней, чтобы освежить их брак, и вряд ли бы у них что-то вышло, если бы не встреча с их старым приятелем, который даёт им возможность по-новому взглянуть на их совместную жизнь.

Название: Уик-энд в Париже
Оригинальное название: Le Week-End
Год выхода: 2013
Жанр: комедия, мелодрама
Режиссер: Роджер Мишелл

В ролях: Джим Бродбент, Линдси Дункан, Джефф Голдблюм, Олли Александр, Софи-Шарлотт Юссон, Ксавьер Де Гийбон, Мари-Франс Альварез, Брайс Божье, Шарлотта Лео, Ли Михельсен





Выпущено: Великобритания
Продолжительность: 01:33:05
Озвучивание: Профессиональное (многоголосное) [online movies]


Формат: MKV
Качество: BDRip 1080p [AN0NYM0US]
Видео: 8575 kb/s, 1920x816
Аудио: Russian: AC3, 192 kb/s (2 ch) / English: DTS, 1510 kb/s (6 ch)
Субтитры: English
Дополнительно: Сохранены оригинальные чаптеры как на Blu-Ray

Скачать: Сэмпл

Релиз группы:



Общее
Le.Week-End.2013.Blu.Ray.1080p.CINEMANIA.mkv
Формат : Matroska
Версия формата : Version 4 / Version 2
Размер файла : 6,68 Гбайт
Продолжительность : 1 ч. 33 м.
Общий поток : 10,3 Мбит/сек
Название фильма : Release Group CINEMANIA
Дата кодирования : UTC 2014-03-28 19:49:06
Программа кодирования : mkvmerge v6.8.0 ('Theme for Great Cities') 64bit built on Mar 2 2014 21:34:26
Библиотека кодирования : libebml v1.3.0 + libmatroska v1.4.1

Видео
Идентификатор : 1
Формат : AVC
Формат/Информация : Advanced Video Codec
Профиль формата : High@L4.0
Параметр CABAC формата : Да
Параметр ReFrames формата : 5 кадров
Идентификатор кодека : V_MPEG4/ISO/AVC
Продолжительность : 1 ч. 33 м.
Битрейт : 8575 Кбит/сек
Ширина : 1920 пикселей
Высота : 816 пикселей
Соотношение сторон : 2,35:1
Режим частоты кадров : Постоянный
Частота кадров : 24,000 кадра/сек
Цветовое пространство : YUV
Субдискретизация насыщенности : 4:2:0
Битовая глубина : 8 бит
Тип развёртки : Прогрессивная
Бит/(Пиксели*Кадры) : 0.228
Размер потока : 5,44 Гбайт (81%)
Заголовок : Release Group CINEMANIA
Библиотека кодирования : x264 core 140 r2377 1ca7bb9
Настройки программы : cabac=1 / ref=5 / deblock=1:0:0 / analyse=0x3:0x113 / me=umh / subme=8 / psy=1 / psy_rd=1.00:0.00 / mixed_ref=1 / me_range=16 / chroma_me=1 / trellis=1 / 8x8dct=1 / cqm=0 / deadzone=21,11 / fast_pskip=0 / chroma_qp_offset=-2 / threads=12 / lookahead_threads=2 / sliced_threads=0 / nr=0 / decimate=1 / interlaced=0 / bluray_compat=0 / constrained_intra=0 / bframes=3 / b_pyramid=2 / b_adapt=2 / b_bias=0 / direct=3 / weightb=1 / open_gop=0 / weightp=2 / keyint=250 / keyint_min=24 / scenecut=40 / intra_refresh=0 / rc_lookahead=50 / rc=2pass / mbtree=1 / bitrate=8575 / ratetol=1.0 / qcomp=0.60 / qpmin=0 / qpmax=69 / qpstep=4 / cplxblur=20.0 / qblur=0.5 / ip_ratio=1.40 / aq=1:1.00
Язык : English
Default : Да
Forced : Нет

Аудио #1
Идентификатор : 2
Формат : AC-3
Формат/Информация : Audio Coding 3
Расширение режима : CM (complete main)
Параметр Endianness формата : Big
Идентификатор кодека : A_AC3
Продолжительность : 1 ч. 33 м.
Вид битрейта : Постоянный
Битрейт : 192 Кбит/сек
Каналы : 2 канала
Расположение каналов : Front: L R
Частота : 48,0 КГц
Битовая глубина : 16 бит
Метод сжатия : С потерями
Размер потока : 128 Мбайт (2%)
Заголовок : online movies
Язык : Russian
Default : Да
Forced : Да

Аудио #2
Идентификатор : 3
Формат : DTS
Формат/Информация : Digital Theater Systems
Режим : 16
Параметр Endianness формата : Big
Идентификатор кодека : A_DTS
Продолжительность : 1 ч. 33 м.
Вид битрейта : Постоянный
Битрейт : 1509 Кбит/сек
Каналы : 6 каналов
Расположение каналов : Front: L C R, Side: L R, LFE
Частота : 48,0 КГц
Битовая глубина : 24 бит
Метод сжатия : С потерями
Размер потока : 1005 Мбайт (15%)
Язык : English
Default : Нет
Forced : Нет

Текст
Идентификатор : 4
Формат : UTF-8
Идентификатор кодека : S_TEXT/UTF8
Идентификатор кодека/Информация : UTF-8 Plain Text
Язык : English
Default : Нет
Forced : Нет

Меню
00:00:00.000 : en:00:00:00.000
00:12:44.750 : en:00:12:44.750
00:22:13.792 : en:00:22:13.792
00:32:26.417 : en:00:32:26.417
00:40:45.417 : en:00:40:45.417
00:51:57.333 : en:00:51:57.333
01:01:00.083 : en:01:01:00.083
01:08:36.125 : en:01:08:36.125
01:19:33.708 : en:01:19:33.708
01:24:17.292 : en:01:24:17.292
01:26:56.750 : en:01:26:56.750
01:28:53.500 : en:01:28:53.500
загрузка...
Правила, инструкции, FAQ!!!
Торрент  Добавлен [29 мар 2014, 09:51] Скачать торрент
Скачать торрент
[ Размер 33.98 КБ / Просмотров 4 ]

Статус  
 
Размер  6.68 ГБ
Приватный: Нет (DHT включён)
.torrent скачан  0
Как залить торрент? | Как скачать Torrent? | Как смотреть и слушать онлайн?  


     Отправить личное сообщение
   
Страница 1 из 1
Показать сообщения за:  Поле сортировки  
Начать новую тему Ответить на тему

   Похожие торренты   Автор   Ответы   Просмотры   Последнее сообщение 
В этой теме нет новых непрочитанных сообщений. Скачать торрент Уик-энд в Париже / Le Week-End (2013) BDRip 720p | P

в форуме 720p | 1080p, Размер: 4.49 ГБ, Здоровье: 0%

Anonymous

0
0|0

23
1

29 мар 2014, 09:48

Anonymous Перейти к последнему сообщению

В этой теме нет новых непрочитанных сообщений. Скачать торрент Проверен Кухня в Париже (2014) BDRip 1080p | Лицензия

в форуме 720p | 1080p, Размер: 9.41 ГБ, Здоровье: 100%

Anonymous

0
110|5

32
1547

12 июн 2014, 09:05

Anonymous Перейти к последнему сообщению

В этой теме нет новых непрочитанных сообщений. Скачать торрент Проверен Монстр в Париже в 3Д / A Monster in Paris 3D (Бибо Бержерон / Bibo Bergeron) [2011, Мультфильм, Фэнтези, Комедия, Приключения, Мюзикл, BDrip, 1080p] OverUnder / Вертикальная стереопара

в форуме HD-Video в 3D, Размер: 8.54 ГБ, Здоровье: 100%

Anonymous

0
14|5

52
0

02 ноя 2014, 09:55

Anonymous Перейти к последнему сообщению

В этой теме нет новых непрочитанных сообщений. Скачать торрент Проверен (Psychedelic Rock) [CD] The Five Day Week Straw People - The Five Day Week Straw People - 1968 (Retrodisc EU 2007), FLAC (image+.cue), lossless

в форуме Progressive & Art-Rock, Размер: 324.11 МБ, Здоровье: 0%

Anonymous

0
0|0

1
0

31 авг 2016, 23:54

Anonymous Перейти к последнему сообщению

В этой теме нет новых непрочитанных сообщений. Скачать торрент Проверен Кухня в Париже (2014) BDRip 720p | Лицензия

в форуме 720p | 1080p, Размер: 5.28 ГБ, Здоровье: 0%

Anonymous

0
0|0

24
0

12 июн 2014, 09:01

Anonymous Перейти к последнему сообщению



Сейчас этот форум просматривают: нет зарегистрированных пользователей и гости: 6


Вы не можете начинать темы
Вы не можете отвечать на сообщения
Вы не можете редактировать свои сообщения
Вы не можете удалять свои сообщения
Вы не можете добавлять вложения

Перейти:  

!ВНИМАНИЕ!
 Ресурс не предоставляет электронные версии произведений, а занимается лишь коллекционированием и каталогизацией ссылок, присылаемых и публикуемых на форуме нашими читателями. Если вы являетесь правообладателем какого-либо представленного материала и не желаете чтобы ссылка на него находилась в нашем каталоге, свяжитесь с нами и мы незамедлительно удалим её. Файлы для обмена на трекере предоставлены пользователями сайта, и администрация не несёт ответственности за их содержание. Просьба не заливать файлы, защищенные авторскими правами, а также файлы нелегального содержания!