На всех торрентах на трекере установлена скидка на скачивание в размере 100 процентов(а).
 Возможность скачивания торрента НЕ зависит от ограничений при низком ратио, низком аплоаде, требуемом ратио или требуемом аплоаде.


Начать новую тему Ответить на тему
Статистика раздачи
Размер: 9.98 ГБ | Добавлен: 27 мар 2014, 15:11 | Скачали: 126
Сидеров: 12  [0 байт/сек]    Личеров: 1  [0 байт/сек]
Пред. тема | След. тема 

Автор
Сообщение

СообщениеДобавлено: 27 мар 2014, 15:11 

Название: Хулиганы
Оригинальное название: Green Street Hooligans
Год выхода: 2005
Жанр: Драма, криминал, спорт
Режиссер: Лекси Александр

В ролях: Элайджа Вуд, Чарли Ханнэм, Дэвид Александр, Оливер Эллисон, Джеймс Эллисон, Джоэль Бекетт, Джофф Белл, Киран Бью, Эндрю Блэр, Дэвид Карр

О фильме:
Студент факультета журналистики Мэтт Бакнер отчислен из Гарварда за преступление, которого он не совершал. Его многообещающая карьера пошла коту под хвост, его будущее выглядит суровым, и он в поисках убежища бежит в Лондон к своей замужней сестре Шэннон. Её муж Стив знакомит Мэтта со своим младшим братом Питом. Сдружившись с Питом, Мэтт открывает для себя мир футбольного фанатизма, а также узнаёт тайны и интриги футбольной фирмы. Пит Данхам и его верные друзья создали Элиту Зелёной улицы, группу ярых фанатов клуба Вэст-Хэм Юнайтед, одну из самых жестоких лондонских футбольных фирм... Здесь он находит новых друзей, новые неприятности и оказывается в компании безумных футбольных фанатов, готовых на алтарь своей страсти бросить любую жертву...



Выпущено: США, Великобритания / Baker Street, Odd Lot Entertainment, Yank Film Finance
Продолжительность: 01:48:52
Перевод: Профессиональный многоголосый

Кодек: MPEG-4 AVC
Качество: BDRip 1080p
Видео: 1920x1078 23,976 fps, 11402 kbps
Звук:
Russian: AC3, 448 Kbps (6 ch) Профессиональный многоголосый (Tycoon-Studio)
Russian: AC3, 192 Kbps (2 ch) Профессиональный многоголосый (CP Digital)
Ukrainian: AC3, 448 Kbps (6 ch) Профессиональный многоголосый (К1)
English: AC3, 640 Kbps (6 ch) Original
Субтитры: Russian (Tycoon-Studio, CP Digital), English
Семпл
Уникальный идентификатор : 213573268757127514484610062928975296035 (0xA0ACB721F6D125209C7FC0DBC984F623)
Полное имя : Green.Street.Hooligans.2005.х264.BDRip.1080р.mkv
Формат : Matroska
Версия формата : Version 4 / Version 2
Размер файла : 9,98 Гбайт
Продолжительность : 1 ч. 48 м.
Общий поток : 13,1 Мбит/сек
Название фильма : ☭WIDDER☭
Дата кодирования : UTC 2014-03-25 14:14:16
Программа кодирования : mkvmerge v6.0.0 ('Coming Up For Air') built on Jan 20 2013 09:52:00
Библиотека кодирования : libebml v1.3.0 + libmatroska v1.4.0

Видео
Идентификатор : 1
Формат : AVC
Формат/Информация : Advanced Video Codec
Профиль формата : High@L4.1
Параметр CABAC формата : Да
Параметр ReFrames формата : 4 кадра
Идентификатор кодека : V_MPEG4/ISO/AVC
Продолжительность : 1 ч. 48 м.
Битрейт : 11,4 Мбит/сек
Ширина : 1920 пикселей
Высота : 1078 пикселей
Соотношение сторон : 16:9
Частота кадров : 23,976 кадра/сек
Цветовое пространство : YUV
Субдискретизация насыщенности : 4:2:0
Битовая глубина : 8 бит
Тип развёртки : Прогрессивная
Бит/(Пиксели*Кадры) : 0.230
Размер потока : 8,47 Гбайт (85%)
Заголовок : Green Street Hooligans (2005)
Библиотека кодирования : x264 core 142 r2409 d6b4e63
Настройки программы : cabac=1 / ref=4 / deblock=1:-3:-3 / analyse=0x3:0x133 / me=umh / subme=11 / psy=1 / psy_rd=1.00:0.00 / mixed_ref=1 / me_range=48 / chroma_me=1 / trellis=2 / 8x8dct=1 / cqm=0 / deadzone=21,11 / fast_pskip=0 / chroma_qp_offset=-2 / threads=12 / lookahead_threads=2 / sliced_threads=0 / nr=0 / decimate=1 / interlaced=0 / bluray_compat=0 / constrained_intra=0 / bframes=9 / b_pyramid=2 / b_adapt=2 / b_bias=0 / direct=3 / weightb=1 / open_gop=0 / weightp=2 / keyint=240 / keyint_min=23 / scenecut=40 / intra_refresh=0 / rc_lookahead=60 / rc=2pass / mbtree=0 / bitrate=11402 / ratetol=1.0 / qcomp=0.60 / qpmin=0 / qpmax=69 / qpstep=4 / cplxblur=20.0 / qblur=0.5 / vbv_maxrate=50000 / vbv_bufsize=50000 / nal_hrd=none / filler=0 / ip_ratio=1.40 / pb_ratio=1.30 / aq=1:0.80
Язык : English
Default : Да
Forced : Нет

Аудио #1
Идентификатор : 2
Формат : AC-3
Формат/Информация : Audio Coding 3
Расширение режима : CM (complete main)
Параметр Endianness формата : Big
Идентификатор кодека : A_AC3
Продолжительность : 1 ч. 48 м.
Вид битрейта : Постоянный
Битрейт : 448 Кбит/сек
Каналы : 6 каналов
Расположение каналов : Front: L C R, Side: L R, LFE
Частота : 48,0 КГц
Битовая глубина : 16 бит
Метод сжатия : С потерями
Размер потока : 349 Мбайт (3%)
Заголовок : AC3, 448 Kbps (6 ch) (Tycoon-Studio)
Язык : Russian
Default : Да
Forced : Нет

Аудио #2
Идентификатор : 3
Формат : AC-3
Формат/Информация : Audio Coding 3
Расширение режима : CM (complete main)
Параметр Endianness формата : Big
Идентификатор кодека : A_AC3
Продолжительность : 1 ч. 48 м.
Вид битрейта : Постоянный
Битрейт : 192 Кбит/сек
Каналы : 2 канала
Расположение каналов : Front: L R
Частота : 48,0 КГц
Битовая глубина : 16 бит
Метод сжатия : С потерями
Размер потока : 150 Мбайт (1%)
Заголовок : AC3, 192 Kbps (2 ch) (CP Digital)
Язык : Russian
Default : Нет
Forced : Нет

Аудио #3
Идентификатор : 4
Формат : AC-3
Формат/Информация : Audio Coding 3
Расширение режима : CM (complete main)
Параметр Endianness формата : Big
Идентификатор кодека : A_AC3
Продолжительность : 1 ч. 48 м.
Вид битрейта : Постоянный
Битрейт : 448 Кбит/сек
Каналы : 6 каналов
Расположение каналов : Front: L C R, Side: L R, LFE
Частота : 48,0 КГц
Битовая глубина : 16 бит
Метод сжатия : С потерями
Размер потока : 349 Мбайт (3%)
Заголовок : AC3, 448 Kbps (6 ch) (К1)
Язык : Ukrainian
Default : Нет
Forced : Нет

Аудио #4
Идентификатор : 5
Формат : AC-3
Формат/Информация : Audio Coding 3
Расширение режима : CM (complete main)
Параметр Endianness формата : Big
Идентификатор кодека : A_AC3
Продолжительность : 1 ч. 48 м.
Вид битрейта : Постоянный
Битрейт : 640 Кбит/сек
Каналы : 6 каналов
Расположение каналов : Front: L C R, Side: L R, LFE
Частота : 48,0 КГц
Битовая глубина : 16 бит
Метод сжатия : С потерями
Размер потока : 498 Мбайт (5%)
Заголовок : AC3, 640 Kbps (6 ch) Original
Язык : English
Default : Нет
Forced : Нет

Текст #1
Идентификатор : 6
Формат : UTF-8
Идентификатор кодека : S_TEXT/UTF8
Идентификатор кодека/Информация : UTF-8 Plain Text
Заголовок : (Tycoon-Studio)
Язык : Russian
Default : Нет
Forced : Нет

Текст #2
Идентификатор : 7
Формат : UTF-8
Идентификатор кодека : S_TEXT/UTF8
Идентификатор кодека/Информация : UTF-8 Plain Text
Заголовок : (CP Digital)
Язык : Russian
Default : Нет
Forced : Нет

Текст #3
Идентификатор : 8
Формат : UTF-8
Идентификатор кодека : S_TEXT/UTF8
Идентификатор кодека/Информация : UTF-8 Plain Text
Язык : English
Default : Нет
Forced : Нет

Меню
00:00:00.000 : :Chapter 01
00:06:19.169 : :Chapter 02
00:14:31.787 : :Chapter 03
00:24:34.181 : :Chapter 04
00:33:27.588 : :Chapter 05
00:40:56.620 : :Chapter 06
00:49:09.362 : :Chapter 07
00:53:18.737 : :Chapter 08
00:59:54.841 : :Chapter 09
01:08:29.772 : :Chapter 10
01:14:58.827 : :Chapter 11
01:22:45.877 : :Chapter 12
01:30:20.164 : :Chapter 13
01:38:19.100 : :Chapter 14
01:42:38.152 : :Chapter 15
01:43:25.240 : :Chapter 16
____________________________________________
x264 [info]: frame I:1026 Avg QP:17.09 size:188881
x264 [info]: frame P:42765 Avg QP:19.25 size: 85417
x264 [info]: frame B:112836 Avg QP:21.67 size: 48371
x264 [info]: consecutive B-frames: 5.2% 8.7% 14.9% 14.1% 15.6% 37.0% 3.2% 0.7% 0.3% 0.3%



Релиз от:
загрузка...
Правила, инструкции, FAQ!!!
Торрент  Добавлен [27 мар 2014, 15:11] Скачать торрент
Скачать торрент
[ Размер 50.42 КБ / Просмотров 5 ]

Статус  
 
Размер  9.98 ГБ
Приватный: Нет (DHT включён)
.torrent скачан  126
Как залить торрент? | Как скачать Torrent? | Как смотреть и слушать онлайн?  


     Отправить личное сообщение
   
Страница 1 из 1
Показать сообщения за:  Поле сортировки  
Начать новую тему Ответить на тему

   Похожие торренты   Автор   Ответы   Просмотры   Последнее сообщение 
В этой теме нет новых непрочитанных сообщений. Скачать торрент Хулиганы / Хулиганы Зелёной улицы / Green Street Hooligans / Hooligans (2005) BDRip 720p

в форуме 720p | 1080p, Размер: 5.29 ГБ, Здоровье: 100%

Anonymous

0
15|1

46
215

27 мар 2014, 15:05

Anonymous Перейти к последнему сообщению

В этой теме нет новых непрочитанных сообщений. Скачать торрент Хулиганы / Хулиганы Зелёной улицы / Green Street Hooligans / Hooligans (Лекси Александр / Lexi Alexander) [2005, США, Великобритания, драма, криминал, спорт, BDRip] MVO (CP-Digital) + Original + subs (2xRus, Eng)

в форуме Драмы, Мелодрамы, Размер: 2.18 ГБ, Здоровье: 100%

Anonymous

0
56|19

22
0

24 апр 2014, 14:09

Anonymous Перейти к последнему сообщению

В этой теме нет новых непрочитанных сообщений. Скачать торрент Проверен Ю-571 / U-571 (2000) BDRip 1080p | D, A | Open Matte

в форуме 720p | 1080p, Размер: 19.72 ГБ, Здоровье: 100%

Гость

0
23|0

53
140

20 дек 2014, 15:36

Гость Перейти к последнему сообщению

В этой теме нет новых непрочитанных сообщений. Скачать торрент Ю-571 / U-571 (2000) BDRip-AVC | D, A | Open Matte

в форуме Военные, Размер: 3.27 ГБ, Здоровье: 100%

Anonymous

0
6|2

72
60

10 янв 2014, 11:37

Anonymous Перейти к последнему сообщению

В этой теме нет новых непрочитанных сообщений. Скачать торрент Проверен Война / War (2007) BDRip | D | Open Matte

в форуме Боевики, Размер: 1.46 ГБ, Здоровье: 100%

Гость

0
89|67

72
75

09 апр 2015, 19:41

Гость Перейти к последнему сообщению



Сейчас этот форум просматривают: нет зарегистрированных пользователей и гости: 2


Вы не можете начинать темы
Вы не можете отвечать на сообщения
Вы не можете редактировать свои сообщения
Вы не можете удалять свои сообщения
Вы не можете добавлять вложения

Перейти:  

!ВНИМАНИЕ!
 Ресурс не предоставляет электронные версии произведений, а занимается лишь коллекционированием и каталогизацией ссылок, присылаемых и публикуемых на форуме нашими читателями. Если вы являетесь правообладателем какого-либо представленного материала и не желаете чтобы ссылка на него находилась в нашем каталоге, свяжитесь с нами и мы незамедлительно удалим её. Файлы для обмена на трекере предоставлены пользователями сайта, и администрация не несёт ответственности за их содержание. Просьба не заливать файлы, защищенные авторскими правами, а также файлы нелегального содержания!