На всех торрентах на трекере установлена скидка на скачивание в размере 100 процентов(а).
 Возможность скачивания торрента НЕ зависит от ограничений при низком ратио, низком аплоаде, требуемом ратио или требуемом аплоаде.


Начать новую тему Ответить на тему
Статистика раздачи
Размер: 7.75 ГБ | Добавлен: 26 мар 2014, 16:05 | Скачали: 162
Сидеров: 11  [0 байт/сек]    Личеров: 0  [0 байт/сек]
Пред. тема | След. тема 

Автор
Сообщение

СообщениеДобавлено: 26 мар 2014, 16:05 

Название: Мне бы в небо
Оригинальное название: Up in the Air
Год выпуска: 2009
Жанр: Комедия, драма, мелодрама
Выпущено: США, Cold Spring Pictures, DW Studios, Paramount Pictures, Right of Way Films, The Montecito Picture Company
Режиссер: Джейсон Рейтмен

В ролях: Джордж Клуни, Вера Фармига, Анна Кендрик, Джейсон Бейтмен, Эми Мортон, Мелани Лински, Дж.К. Симмонс, Сэм Эллиотт, Дэнни МакБрайд, Зак Галифианакис

Перевод: Дублированный

Сюжет фильма
Райан Бинэм — корпоративный юрист, всё время проводящий в командировках. Образцовый потребитель, он преуспел в корпоративных связях, чем не может похвалиться в личной жизни. Отношения на одну ночь для него просто часть длинного списка с бесчисленными люксами отелей, арендованными автомобилями, электронной почтой и сообщениями на автоответчике. Постоянные разъезды отдалили его от родной семьи, а свою он так и не создал…



Файл
Качество: BDRip 1080p (исходник Blu-ray)
Видео: 1920x1040, 9 073 Кбит/сек, 23.976 кадр/сек, AVC, x264, High@L4.1, 0.190 Бит/[Пиксели*Кадры], 2pass
Аудио 1: AC3 5.1 48 kHz 448 kbps - Дублированный
Аудио 2: AC3 5.1 48 kHz 640 kbps - English
Чаптеры: есть
Субтитры: Russian,English
Продолжительность: 01:49:20
Автор рипа: Сообщество:


Format : Matroska
Format version : Version 2
File size : 7.75 GiB
Duration : 1h 49mn
Overall bit rate : 10.2 Mbps
Movie name : Mne by v nebo.(2009).BDRip.1080p.[denis100]
Encoded date : UTC 2014-03-26 13:00:41
Writing application : mkvmerge v5.8.0 ('No Sleep / Pillow') built on Sep 2 2012 15:37:04
Writing library : libebml v1.2.3 + libmatroska v1.3.0

Video
ID : 1
Format : AVC
Format/Info : Advanced Video Codec
Format profile : High@L4.1
Format settings, CABAC : Yes
Format settings, ReFrames : 4 frames
Codec ID : V_MPEG4/ISO/AVC
Duration : 1h 49mn
Bit rate : 9 073 Kbps
Width : 1 920 pixels
Height : 1 040 pixels
Display aspect ratio : 1.85:1
Frame rate mode : Constant
Frame rate : 23.976 fps
Color space : YUV
Chroma subsampling : 4:2:0
Bit depth : 8 bits
Scan type : Progressive
Bits/(Pixel*Frame) : 0.190
Stream size : 6.77 GiB (87%)
Title : Mne by v nebo.(2009).BDRip.1080p.[denis100]
Writing library : x264 core 138 r2358 9e941d1
Encoding settings : cabac=1 / ref=4 / deblock=1:-3:-3 / analyse=0x3:0x133 / me=umh / subme=11 / psy=1 / psy_rd=1.00:0.10 / mixed_ref=1 / me_range=32 / chroma_me=1 / trellis=2 / 8x8dct=1 / cqm=0 / deadzone=21,11 / fast_pskip=0 / chroma_qp_offset=-3 / threads=6 / lookahead_threads=1 / sliced_threads=0 / nr=0 / decimate=1 / interlaced=0 / bluray_compat=0 / constrained_intra=0 / bframes=7 / b_pyramid=2 / b_adapt=2 / b_bias=0 / direct=3 / weightb=1 / open_gop=0 / weightp=2 / keyint=240 / keyint_min=23 / scenecut=40 / intra_refresh=0 / rc=2pass / mbtree=0 / bitrate=9073 / ratetol=1.0 / qcomp=0.60 / qpmin=0 / qpmax=69 / qpstep=4 / cplxblur=20.0 / qblur=0.5 / ip_ratio=1.40 / pb_ratio=1.30 / aq=1:0.90
Language : English
Default : Yes
Forced : No

Audio #1
ID : 2
Format : AC-3
Format/Info : Audio Coding 3
Mode extension : CM (complete main)
Format settings, Endianness : Big
Codec ID : A_AC3
Duration : 1h 49mn
Bit rate mode : Constant
Bit rate : 448 Kbps
Channel(s) : 6 channels
Channel positions : Front: L C R, Side: L R, LFE
Sampling rate : 48.0 KHz
Bit depth : 16 bits
Compression mode : Lossy
Stream size : 350 MiB (4%)
Title : Дублированный
Language : Russian
Default : Yes
Forced : No

Audio #2
ID : 3
Format : AC-3
Format/Info : Audio Coding 3
Mode extension : CM (complete main)
Format settings, Endianness : Big
Codec ID : A_AC3
Duration : 1h 49mn
Bit rate mode : Constant
Bit rate : 640 Kbps
Channel(s) : 6 channels
Channel positions : Front: L C R, Side: L R, LFE
Sampling rate : 48.0 KHz
Bit depth : 16 bits
Compression mode : Lossy
Stream size : 501 MiB (6%)
Title : English
Language : English
Default : No
Forced : No

Text #1
ID : 4
Format : UTF-8
Codec ID : S_TEXT/UTF8
Codec ID/Info : UTF-8 Plain Text
Title : Russian
Language : Russian
Default : No
Forced : No

Text #2
ID : 5
Format : UTF-8
Codec ID : S_TEXT/UTF8
Codec ID/Info : UTF-8 Plain Text
Title : English
Language : English
Default : No
Forced : No

Menu
00:00:00.000 : en:00:00:00.000
00:07:41.294 : en:00:07:41.294
00:11:07.000 : en:00:11:07.000
00:18:17.513 : en:00:18:17.513
00:25:44.042 : en:00:25:44.042
00:31:02.235 : en:00:31:02.235
00:36:05.163 : en:00:36:05.163
00:43:00.953 : en:00:43:00.953
00:49:15.953 : en:00:49:15.953
00:53:20.030 : en:00:53:20.030
01:00:00.430 : en:01:00:00.430
01:07:38.763 : en:01:07:38.763
01:17:39.572 : en:01:17:39.572
01:24:48.125 : en:01:24:48.125
01:28:41.399 : en:01:28:41.399
01:33:25.683 : en:01:33:25.683
01:40:34.695 : en:01:40:34.695
01:44:08.242 : en:01:44:08.242
загрузка...
Правила, инструкции, FAQ!!!
Торрент  Добавлен [26 мар 2014, 16:05] Скачать торрент
Скачать торрент
[ Размер 39.28 КБ / Просмотров 4 ]

Статус  
 
Размер  7.75 ГБ
Приватный: Нет (DHT включён)
.torrent скачан  162
Как залить торрент? | Как скачать Torrent? | Как смотреть и слушать онлайн?  


     Отправить личное сообщение
   
Страница 1 из 1
Показать сообщения за:  Поле сортировки  
Начать новую тему Ответить на тему

   Похожие торренты   Автор   Ответы   Просмотры   Последнее сообщение 
В этой теме нет новых непрочитанных сообщений. Скачать торрент Красное небо / Red Sky (2014) BDRip [1080p]

в форуме 720p | 1080p, Размер: 7.37 ГБ, Здоровье: 0%

Anonymous

0
0|0

23
0

17 апр 2014, 00:34

Anonymous Перейти к последнему сообщению

В этой теме нет новых непрочитанных сообщений. Скачать торрент Мне бы в небо / Up in the Air (2009) BDRip-AVC

в форуме 720p | 1080p, Размер: 2.18 ГБ, Здоровье: 0%

Anonymous

0
0|0

36
0

09 янв 2014, 00:35

Anonymous Перейти к последнему сообщению

В этой теме нет новых непрочитанных сообщений. Скачать торрент Проверен [iPad] Мне бы в небо / Up in the Air (Джейсон Рейтман / Jason Reitman) [2009 г., мелодрама, драма, BDRip, 720p]

в форуме Фильмы для iPod, iPhone, iPad, Размер: 2.25 ГБ, Здоровье: 100%

Anonymous

0
20|6

104
2

18 май 2015, 10:56

Anonymous Перейти к последнему сообщению

В этой теме нет новых непрочитанных сообщений. Скачать торрент Проверен Linkin Park - New Divide (2009) BDRip 1080p (Джо Хан) [2009, Alternative rock, BDRip]

в форуме Концерты (HD-Video), Размер: 451.32 МБ, Здоровье: 100%

Anonymous

0
3|1

4
0

23 окт 2016, 11:54

Anonymous Перейти к последнему сообщению

В этой теме нет новых непрочитанных сообщений. Скачать торрент Проверен Bon Jovi - When We Were Beautiful (Bonus) BDrip 1080p [2009, Rock, Documentary, BDRip]

в форуме Концерты (HD-Video), Размер: 4.09 ГБ, Здоровье: 100%

Anonymous

0
2|1

0
0

23 окт 2016, 14:23

Anonymous Перейти к последнему сообщению



Сейчас этот форум просматривают: нет зарегистрированных пользователей и гости: 1


Вы не можете начинать темы
Вы не можете отвечать на сообщения
Вы не можете редактировать свои сообщения
Вы не можете удалять свои сообщения
Вы не можете добавлять вложения

Перейти:  

!ВНИМАНИЕ!
 Ресурс не предоставляет электронные версии произведений, а занимается лишь коллекционированием и каталогизацией ссылок, присылаемых и публикуемых на форуме нашими читателями. Если вы являетесь правообладателем какого-либо представленного материала и не желаете чтобы ссылка на него находилась в нашем каталоге, свяжитесь с нами и мы незамедлительно удалим её. Файлы для обмена на трекере предоставлены пользователями сайта, и администрация не несёт ответственности за их содержание. Просьба не заливать файлы, защищенные авторскими правами, а также файлы нелегального содержания!