На всех торрентах на трекере установлена скидка на скачивание в размере 100 процентов(а).
 Возможность скачивания торрента НЕ зависит от ограничений при низком ратио, низком аплоаде, требуемом ратио или требуемом аплоаде.


Начать новую тему Ответить на тему
Статистика раздачи
Размер: 6.03 ГБ | Добавлен: 26 мар 2014, 11:29 | Скачали: 24
Сидеров: 3  [0 байт/сек]    Личеров: 0  [0 байт/сек]
Пред. тема | След. тема 

Автор
Сообщение

СообщениеДобавлено: 26 мар 2014, 11:29 

Название: Почему ты не играешь в аду?
Оригинальное название: Jigoku de naze warui / Why Don't You Play in Hell?
Год выхода: 2013
Жанр: боевик
Режиссер: Сион Соно

В ролях: Хироки Хасегава, Ген Хошино, Акихиро Китамура, Дзюн Кунимура, Фуми Никайдо, Так Сакагути, Томочика, Синъити Цуцуми

О фильме:
Герой этого фильма задумал снять фильм о якудзе, который поразит зрителей жесткостью и реалистичностью. Но для этого ему приходится близко познакомится с миром японской мафии, а это чревато большими проблемами и для него, и для всей съемочной группы. Теперь молодому режиссеру предстоит пожалеть, что на съемках стало слишком много реализма, а льющаяся рекой кровь – совсем не бутафорская...



Выпущено: Япония
Продолжительность: 02:09:49
Озвучивание: Любительское (двухголосое) [DeadSno & den904]
перевод на русский язык [akira9]


Формат: MKV
Качество: BDRip 720p [GDK]
Видео: 5559 kb/s, 1280х544
Аудио: Russian: AC3, 448 kb/s (6 ch) / Japanese: AC3, 640 kb/s (6 ch)
Субтитры: English

Скачать: Сэмпл

Релиз группы:



Общее
Why.Dont.You.Play.in.Hell.2013.Blu.Ray.720p.CINEMANIA.mkv
Формат : Matroska
Версия формата : Version 4 / Version 2
Размер файла : 6,03 Гбайт
Продолжительность : 2 ч. 9 м.
Общий поток : 6646 Кбит/сек
Название фильма : Release Group CINEMANIA
Дата кодирования : UTC 2014-03-24 17:44:56
Программа кодирования : mkvmerge v6.8.0 ('Theme for Great Cities') 64bit built on Mar 2 2014 21:34:26
Библиотека кодирования : libebml v1.3.0 + libmatroska v1.4.1

Видео
Идентификатор : 1
Формат : AVC
Формат/Информация : Advanced Video Codec
Профиль формата : High@L4.1
Параметр CABAC формата : Да
Параметр ReFrames формата : 9 кадров
Идентификатор кодека : V_MPEG4/ISO/AVC
Продолжительность : 2 ч. 9 м.
Битрейт : 5559 Кбит/сек
Ширина : 1280 пикселей
Высота : 544 пикселя
Соотношение сторон : 2,35:1
Режим частоты кадров : Постоянный
Частота кадров : 23,976 кадра/сек
Цветовое пространство : YUV
Субдискретизация насыщенности : 4:2:0
Битовая глубина : 8 бит
Тип развёртки : Прогрессивная
Бит/(Пиксели*Кадры) : 0.333
Размер потока : 4,92 Гбайт (82%)
Заголовок : Release Group CINEMANIA
Библиотека кодирования : x264 core 138 r2358 9e941d1
Настройки программы : cabac=1 / ref=9 / deblock=1:-1:-1 / analyse=0x3:0x133 / me=umh / subme=10 / psy=1 / psy_rd=1.00:0.15 / mixed_ref=1 / me_range=48 / chroma_me=1 / trellis=2 / 8x8dct=1 / cqm=0 / deadzone=21,11 / fast_pskip=0 / chroma_qp_offset=-3 / threads=6 / lookahead_threads=1 / sliced_threads=0 / nr=0 / decimate=1 / interlaced=0 / bluray_compat=0 / constrained_intra=0 / bframes=8 / b_pyramid=2 / b_adapt=2 / b_bias=0 / direct=3 / weightb=1 / open_gop=0 / weightp=2 / keyint=240 / keyint_min=23 / scenecut=40 / intra_refresh=0 / rc_lookahead=60 / rc=2pass / mbtree=1 / bitrate=5559 / ratetol=1.0 / qcomp=0.60 / qpmin=0 / qpmax=69 / qpstep=4 / cplxblur=20.0 / qblur=0.5 / ip_ratio=1.40 / aq=1:1.00
Язык : Japanese
Default : Да
Forced : Нет

Аудио #1
Идентификатор : 2
Формат : AC-3
Формат/Информация : Audio Coding 3
Расширение режима : CM (complete main)
Параметр Endianness формата : Big
Идентификатор кодека : A_AC3
Продолжительность : 2 ч. 9 м.
Вид битрейта : Постоянный
Битрейт : 448 Кбит/сек
Каналы : 6 каналов
Расположение каналов : Front: L C R, Side: L R, LFE
Частота : 48,0 КГц
Битовая глубина : 16 бит
Метод сжатия : С потерями
Размер потока : 416 Мбайт (7%)
Заголовок : Влад и Снежинка
Язык : Russian
Default : Да
Forced : Да

Аудио #2
Идентификатор : 3
Формат : AC-3
Формат/Информация : Audio Coding 3
Расширение режима : CM (complete main)
Параметр Endianness формата : Big
Идентификатор кодека : A_AC3
Продолжительность : 2 ч. 9 м.
Вид битрейта : Постоянный
Битрейт : 640 Кбит/сек
Каналы : 6 каналов
Расположение каналов : Front: L C R, Side: L R, LFE
Частота : 48,0 КГц
Битовая глубина : 16 бит
Метод сжатия : С потерями
Размер потока : 594 Мбайт (10%)
Язык : Japanese
Default : Нет
Forced : Нет

Текст
Идентификатор : 4
Формат : UTF-8
Идентификатор кодека : S_TEXT/UTF8
Идентификатор кодека/Информация : UTF-8 Plain Text
Язык : English
Default : Нет
Forced : Нет
загрузка...
Правила, инструкции, FAQ!!!
Торрент  Добавлен [26 мар 2014, 11:29] Скачать торрент
Скачать торрент
[ Размер 30.71 КБ / Просмотров 8 ]

Статус  
 
Размер  6.03 ГБ
Приватный: Нет (DHT включён)
.torrent скачан  24
Как залить торрент? | Как скачать Torrent? | Как смотреть и слушать онлайн?  


     Отправить личное сообщение
   
Страница 1 из 1
Показать сообщения за:  Поле сортировки  
Начать новую тему Ответить на тему

   Похожие торренты   Автор   Ответы   Просмотры   Последнее сообщение 
В этой теме нет новых непрочитанных сообщений. Скачать торрент Почему ты не играешь в аду? / Jigoku de naze warui / Why Don't You Play in Hell? (2013) HDRip | L2

в форуме Боевики, Размер: 2.05 ГБ, Здоровье: 100%

Anonymous

0
7|3

30
79

26 мар 2014, 11:26

Anonymous Перейти к последнему сообщению

В этой теме нет новых непрочитанных сообщений. Скачать торрент Большая игра / State of Play (2009) BDRip 720p | D

в форуме 720p | 1080p, Размер: 7.93 ГБ, Здоровье: ???%

Anonymous

0
0|1

28
0

15 фев 2014, 16:57

Anonymous Перейти к последнему сообщению

В этой теме нет новых непрочитанных сообщений. Скачать торрент Проверен Игра по правилам / Fair Play (2014) BDRip 720p | L1

в форуме 720p | 1080p, Размер: 5.63 ГБ, Здоровье: 100%

Anonymous

0
16|4

37
198

10 дек 2014, 19:05

Anonymous Перейти к последнему сообщению

В этой теме нет новых непрочитанных сообщений. Скачать торрент Проверен LCD Soundsystem ‎- Shut Up And Play The Hits Part 1 [2012, Electronic, Indie Rock, BDRip 720p]

в форуме Концерты (HD-Video), Размер: 4.37 ГБ, Здоровье: 100%

Гость

0
10|3

14
0

26 апр 2015, 22:47

Гость Перейти к последнему сообщению

В этой теме нет новых непрочитанных сообщений. Скачать торрент Проверен Anthrax - Chile on Hell [2014, Thrash Metal, BDRip 720p]

в форуме Концерты (HD-Video), Размер: 4.36 ГБ, Здоровье: 0%

Anonymous

0
0|0

0
0

23 окт 2016, 13:03

Anonymous Перейти к последнему сообщению



Сейчас этот форум просматривают: нет зарегистрированных пользователей и гости: 3


Вы не можете начинать темы
Вы не можете отвечать на сообщения
Вы не можете редактировать свои сообщения
Вы не можете удалять свои сообщения
Вы не можете добавлять вложения

Перейти:  

!ВНИМАНИЕ!
 Ресурс не предоставляет электронные версии произведений, а занимается лишь коллекционированием и каталогизацией ссылок, присылаемых и публикуемых на форуме нашими читателями. Если вы являетесь правообладателем какого-либо представленного материала и не желаете чтобы ссылка на него находилась в нашем каталоге, свяжитесь с нами и мы незамедлительно удалим её. Файлы для обмена на трекере предоставлены пользователями сайта, и администрация не несёт ответственности за их содержание. Просьба не заливать файлы, защищенные авторскими правами, а также файлы нелегального содержания!