На всех торрентах на трекере установлена скидка на скачивание в размере 100 процентов(а).
 Возможность скачивания торрента НЕ зависит от ограничений при низком ратио, низком аплоаде, требуемом ратио или требуемом аплоаде.


Начать новую тему Ответить на тему
Статистика раздачи
Размер: 7.99 ГБ | Добавлен: 26 мар 2014, 08:47 | Скачали: 23
Сидеров: 3  [0 байт/сек]    Личеров: 1  [0 байт/сек]
Пред. тема | След. тема 

Автор
Сообщение

СообщениеДобавлено: 26 мар 2014, 08:47 

Название: Белый шторм
Оригинальное название: The White Storm
Год выхода: 2013
Жанр: криминал, драма, боевик
Режиссер: Бенни Чан

В ролях: Луис Ку, Чинг Ван Лау, Ник Чун, Квон Йуан, Хой-Панг Ло, Лик-Сун Фон, Тинг Йип ЭнДжи, Йонг Хоу

О фильме:
Полиция Гонконга получает информацию о готовящейся сделке по продаже огромной партии наркотиков. Им известно место и время сделки, вот только они не знают насколько серьезные силы здесь замешаны. Когда счёт идет на сотни миллионов долларов, наркодиллеры не остановятся ни перед чем – и вот уже для полицейских это становится не просто делом чести. Теперь речь идёт об их собственных жизнях и безопасности тех, кто им дорог...



Выпущено: Гонконг
Продолжительность: 02:14:14
Озвучивание: Авторское (одноголосое) [Д.Есарев]


Формат: MKV
Качество: BDRip 720p [TayTO]
Видео: 6199 kb/s, 1280x544
Аудио: Russian: DTS, 1510 kb/s (6 ch) / Chinese: AC3, 640 kb/s (6 ch)
Субтитры: English
Дополнительно: Сохранены оригинальные чаптеры как на Blu-Ray

Скачать: Сэмпл

Релиз группы:



Общее
The.White.Storm.2013.Blu.Ray.720p.CINEMANIA.mkv
Формат : Matroska
Версия формата : Version 4 / Version 2
Размер файла : 7,99 Гбайт
Продолжительность : 2 ч. 14 м.
Общий поток : 8518 Кбит/сек
Название фильма : Release Group CINEMANIA
Дата кодирования : UTC 2014-03-26 00:04:42
Программа кодирования : mkvmerge v6.8.0 ('Theme for Great Cities') 64bit built on Mar 2 2014 21:34:26
Библиотека кодирования : libebml v1.3.0 + libmatroska v1.4.1

Видео
Идентификатор : 1
Формат : AVC
Формат/Информация : Advanced Video Codec
Профиль формата : High@L4.1
Параметр CABAC формата : Да
Параметр ReFrames формата : 12 кадров
Идентификатор кодека : V_MPEG4/ISO/AVC
Продолжительность : 2 ч. 14 м.
Битрейт : 6199 Кбит/сек
Ширина : 1280 пикселей
Высота : 544 пикселя
Соотношение сторон : 2,35:1
Режим частоты кадров : Постоянный
Частота кадров : 24,000 кадра/сек
Цветовое пространство : YUV
Субдискретизация насыщенности : 4:2:0
Битовая глубина : 8 бит
Тип развёртки : Прогрессивная
Бит/(Пиксели*Кадры) : 0.371
Размер потока : 5,81 Гбайт (73%)
Заголовок : Release Group CINEMANIA
Библиотека кодирования : x264 core 142 r2389 956c8d8
Настройки программы : cabac=1 / ref=12 / deblock=1:-3:-3 / analyse=0x3:0x133 / me=tesa / subme=11 / psy=1 / psy_rd=0.95:0.00 / mixed_ref=1 / me_range=16 / chroma_me=1 / trellis=2 / 8x8dct=1 / cqm=0 / deadzone=21,11 / fast_pskip=0 / chroma_qp_offset=-2 / threads=12 / lookahead_threads=2 / sliced_threads=0 / nr=0 / decimate=1 / interlaced=0 / bluray_compat=0 / constrained_intra=0 / bframes=7 / b_pyramid=2 / b_adapt=2 / b_bias=0 / direct=3 / weightb=1 / open_gop=0 / weightp=2 / keyint=250 / keyint_min=24 / scenecut=40 / intra_refresh=0 / rc=crf / mbtree=0 / crf=15.5 / qcomp=0.65 / qpmin=0 / qpmax=69 / qpstep=4 / ip_ratio=1.40 / pb_ratio=1.30 / aq=1:0.90
Язык : English
Default : Да
Forced : Нет
Коэффициенты матрицы : BT.709

Аудио #1
Идентификатор : 2
Формат : DTS
Формат/Информация : Digital Theater Systems
Режим : 16
Параметр Endianness формата : Big
Идентификатор кодека : A_DTS
Продолжительность : 2 ч. 14 м.
Вид битрейта : Постоянный
Битрейт : 1509 Кбит/сек
Каналы : 6 каналов
Расположение каналов : Front: L C R, Side: L R, LFE
Частота : 48,0 КГц
Битовая глубина : 16 бит
Метод сжатия : С потерями
Размер потока : 1,41 Гбайт (18%)
Заголовок : Д.Есарев
Язык : Russian
Default : Да
Forced : Да

Аудио #2
Идентификатор : 3
Формат : AC-3
Формат/Информация : Audio Coding 3
Расширение режима : CM (complete main)
Параметр Endianness формата : Big
Идентификатор кодека : A_AC3
Продолжительность : 2 ч. 14 м.
Вид битрейта : Постоянный
Битрейт : 640 Кбит/сек
Каналы : 6 каналов
Расположение каналов : Front: L C R, Side: L R, LFE
Частота : 48,0 КГц
Битовая глубина : 16 бит
Метод сжатия : С потерями
Размер потока : 614 Мбайт (8%)
Язык : Chinese
Default : Нет
Forced : Нет

Текст
Идентификатор : 4
Формат : UTF-8
Идентификатор кодека : S_TEXT/UTF8
Идентификатор кодека/Информация : UTF-8 Plain Text
Язык : English
Default : Нет
Forced : Нет

Меню
00:00:00.000 : en:00:00:00.000
00:11:50.208 : en:00:11:50.208
00:20:47.542 : en:00:20:47.542
00:32:32.625 : en:00:32:32.625
00:41:05.000 : en:00:41:05.000
00:55:11.042 : en:00:55:11.042
01:05:40.792 : en:01:05:40.792
01:16:10.583 : en:01:16:10.583
01:26:51.292 : en:01:26:51.292
01:36:30.292 : en:01:36:30.292
01:46:42.708 : en:01:46:42.708
02:00:50.458 : en:02:00:50.458
загрузка...
Правила, инструкции, FAQ!!!
Торрент  Добавлен [26 мар 2014, 08:47] Скачать торрент
Скачать торрент
[ Размер 40.5 КБ / Просмотров 2 ]

Статус  
 
Размер  7.99 ГБ
Приватный: Нет (DHT включён)
.torrent скачан  23
Как залить торрент? | Как скачать Torrent? | Как смотреть и слушать онлайн?  


     Отправить личное сообщение
   
Страница 1 из 1
Показать сообщения за:  Поле сортировки  
Начать новую тему Ответить на тему

   Похожие торренты   Автор   Ответы   Просмотры   Последнее сообщение 
В этой теме нет новых непрочитанных сообщений. Скачать торрент Белый шторм / The White Storm (2013) BDRip-AVC | Д. Есарев

в форуме Криминал, Размер: 2.01 ГБ, Здоровье: 100%

Anonymous

0
2|0

91
45

26 мар 2014, 08:42

Anonymous Перейти к последнему сообщению

В этой теме нет новых непрочитанных сообщений. Скачать торрент Белый шторм / The White Storm (2013) BDRip 1080p | A

в форуме 720p | 1080p, Размер: 13.27 ГБ, Здоровье: 100%

Anonymous

0
1|0

52
8

26 мар 2014, 08:50

Anonymous Перейти к последнему сообщению

В этой теме нет новых непрочитанных сообщений. Скачать торрент Белый шторм / The White Storm (2013) HDRip | L1

в форуме Криминал, Размер: 1.46 ГБ, Здоровье: 100%

Anonymous

0
11|0

185
215

26 мар 2014, 08:45

Anonymous Перейти к последнему сообщению

В этой теме нет новых непрочитанных сообщений. Скачать торрент Проверен Идеальный шторм / The Perfect Storm (2000) BDRip 1080p | D, A

в форуме 720p | 1080p, Размер: 7.75 ГБ, Здоровье: 100%

Anonymous

0
38|34

30
23

25 апр 2015, 18:36

Anonymous Перейти к последнему сообщению

В этой теме нет новых непрочитанных сообщений. Скачать торрент Проверен Идеальный шторм / The Perfect Storm (2000) HDRip | D

в форуме Боевики, Размер: 1.45 ГБ, Здоровье: 100%

Anonymous

0
103|79

76
21

25 апр 2015, 18:32

Anonymous Перейти к последнему сообщению



Сейчас этот форум просматривают: нет зарегистрированных пользователей и гости: 4


Вы не можете начинать темы
Вы не можете отвечать на сообщения
Вы не можете редактировать свои сообщения
Вы не можете удалять свои сообщения
Вы не можете добавлять вложения

Перейти:  

!ВНИМАНИЕ!
 Ресурс не предоставляет электронные версии произведений, а занимается лишь коллекционированием и каталогизацией ссылок, присылаемых и публикуемых на форуме нашими читателями. Если вы являетесь правообладателем какого-либо представленного материала и не желаете чтобы ссылка на него находилась в нашем каталоге, свяжитесь с нами и мы незамедлительно удалим её. Файлы для обмена на трекере предоставлены пользователями сайта, и администрация не несёт ответственности за их содержание. Просьба не заливать файлы, защищенные авторскими правами, а также файлы нелегального содержания!