На всех торрентах на трекере установлена скидка на скачивание в размере 100 процентов(а).
 Возможность скачивания торрента НЕ зависит от ограничений при низком ратио, низком аплоаде, требуемом ратио или требуемом аплоаде.


Начать новую тему Ответить на тему
Статистика раздачи
Размер: 3.73 ГБ | Добавлен: 25 мар 2014, 20:38 | Скачали: 222
Сидеров: 7  [0 байт/сек]    Личеров: 0  [0 байт/сек]
Пред. тема | След. тема 

Автор
Сообщение

СообщениеДобавлено: 25 мар 2014, 20:38 

Название: Рыцари королевства Крутизны
Оригинальное название: Knights of Badassdom
Год выпуска: 2013
Жанр: приключения, комедия, фэнтези
Режиссер: Джо Линч

В ролях: Райан Квантен, Стив Зан, Питер Динклэйдж, Саммер Глау, Маргарита Левиева, Джошуа Малина, Дэнни Пуди, У. Эрл Браун

О фильме:
Несколько друзей просто обожают компьютерные игры и в один прекрасный момент они отправляются на костюмированную ролевую игру. Приехав в леса Нью-Джерси огромное количество людей переодеваются в рыцарей, эльфов, гномов и прочих персонажей из компьютерной игры «Подземелье и драконы», чтобы попробовать полностью воссоздать ее сценарий. Все они отключают мобильные телефоны и погружаются в волшебный мир средневековья. Но вскоре их игра превращается в настоящий кошмар, ведь совершенно случайно один из друзей вызывает древнего демона. Теперь им необходимо победить это существо и спасти не только свои жизни, но и жизни огромного количества участников игры...



Выпущено: США
Продолжительность: 01:25:27
Озвучивание: Любительское (многоголосое) [ViruseProject]


Формат: MKV
Качество: BDRip 720p [CHD]
Видео: 4355 kb/s, 1280x534
Аудио: Russian: AC3, 384 kb/s (6 ch) / English: DTS, 1510 kb/s (6 ch)
Субтитры: Russian (forced) and (full) by [Kintar & Co], English
Дополнительно: Сохранены оригинальные чаптеры как на Blu-Ray

Скачать: Сэмпл

Релиз группы:




Общее
Knights.Of.Badassdom.2013.Blu.Ray.720p.CINEMANIA.mkv
Формат : Matroska
Версия формата : Version 4 / Version 2
Размер файла : 3,73 Гбайт
Продолжительность : 1 ч. 25 м.
Общий поток : 6243 Кбит/сек
Название фильма : Release Group CINEMANIA
Дата кодирования : UTC 2014-03-25 14:41:14
Программа кодирования : mkvmerge v6.8.0 ('Theme for Great Cities') 64bit built on Mar 2 2014 21:34:26
Библиотека кодирования : libebml v1.3.0 + libmatroska v1.4.1

Видео
Идентификатор : 1
Формат : AVC
Формат/Информация : Advanced Video Codec
Профиль формата : High@L4.1
Параметр CABAC формата : Да
Параметр ReFrames формата : 10 кадров
Идентификатор кодека : V_MPEG4/ISO/AVC
Продолжительность : 1 ч. 25 м.
Битрейт : 4355 Кбит/сек
Ширина : 1280 пикселей
Высота : 534 пикселя
Соотношение сторон : 2,40:1
Режим частоты кадров : Постоянный
Частота кадров : 23,976 кадра/сек
Цветовое пространство : YUV
Субдискретизация насыщенности : 4:2:0
Битовая глубина : 8 бит
Тип развёртки : Прогрессивная
Бит/(Пиксели*Кадры) : 0.266
Размер потока : 2,52 Гбайт (68%)
Заголовок : Release Group CINEMANIA
Библиотека кодирования : x264 core 138 r2356 a1d3d17
Настройки программы : cabac=1 / ref=10 / deblock=1:-3:-3 / analyse=0x3:0x113 / me=umh / subme=10 / psy=1 / psy_rd=1.00:0.05 / mixed_ref=1 / me_range=32 / chroma_me=1 / trellis=2 / 8x8dct=1 / cqm=0 / deadzone=21,11 / fast_pskip=0 / chroma_qp_offset=-2 / threads=18 / lookahead_threads=1 / sliced_threads=0 / nr=0 / decimate=1 / interlaced=0 / bluray_compat=0 / constrained_intra=0 / bframes=5 / b_pyramid=2 / b_adapt=2 / b_bias=0 / direct=3 / weightb=1 / open_gop=0 / weightp=2 / keyint=250 / keyint_min=23 / scenecut=40 / intra_refresh=0 / rc=2pass / mbtree=0 / bitrate=4355 / ratetol=1.0 / qcomp=0.70 / qpmin=0 / qpmax=69 / qpstep=4 / cplxblur=20.0 / qblur=0.5 / ip_ratio=1.40 / pb_ratio=1.30 / aq=2:1.00
Язык : English
Default : Да
Forced : Нет

Аудио #1
Идентификатор : 2
Формат : AC-3
Формат/Информация : Audio Coding 3
Расширение режима : CM (complete main)
Параметр Endianness формата : Big
Идентификатор кодека : A_AC3
Продолжительность : 1 ч. 25 м.
Вид битрейта : Постоянный
Битрейт : 384 Кбит/сек
Каналы : 6 каналов
Расположение каналов : Front: L C R, Side: L R, LFE
Частота : 48,0 КГц
Битовая глубина : 16 бит
Метод сжатия : С потерями
Размер потока : 235 Мбайт (6%)
Заголовок : ViruseProject
Язык : Russian
Default : Да
Forced : Да

Аудио #2
Идентификатор : 3
Формат : DTS
Формат/Информация : Digital Theater Systems
Режим : 16
Параметр Endianness формата : Big
Идентификатор кодека : A_DTS
Продолжительность : 1 ч. 25 м.
Вид битрейта : Постоянный
Битрейт : 1509 Кбит/сек
Каналы : 6 каналов
Расположение каналов : Front: L C R, Side: L R, LFE
Частота : 48,0 КГц
Битовая глубина : 24 бит
Метод сжатия : С потерями
Размер потока : 922 Мбайт (24%)
Язык : English
Default : Нет
Forced : Нет

Текст #1
Идентификатор : 4
Формат : UTF-8
Идентификатор кодека : S_TEXT/UTF8
Идентификатор кодека/Информация : UTF-8 Plain Text
Заголовок : forced
Язык : Russian
Default : Да
Forced : Да

Текст #2
Идентификатор : 5
Формат : UTF-8
Идентификатор кодека : S_TEXT/UTF8
Идентификатор кодека/Информация : UTF-8 Plain Text
Заголовок : Kintar & Co
Язык : Russian
Default : Нет
Forced : Нет

Текст #3
Идентификатор : 6
Формат : UTF-8
Идентификатор кодека : S_TEXT/UTF8
Идентификатор кодека/Информация : UTF-8 Plain Text
Язык : English
Default : Нет
Forced : Нет

Меню
00:00:00.000 : en:00:00:00.000
00:05:02.511 : en:00:05:02.511
00:09:34.824 : en:00:09:34.824
00:12:56.567 : en:00:12:56.567
00:18:42.038 : en:00:18:42.038
00:25:52.801 : en:00:25:52.801
00:31:01.234 : en:00:31:01.234
00:35:34.007 : en:00:35:34.007
00:42:39.474 : en:00:42:39.474
00:46:58.399 : en:00:46:58.399
00:52:13.088 : en:00:52:13.088
00:57:53.345 : en:00:57:53.345
01:02:52.227 : en:01:02:52.227
01:10:05.284 : en:01:10:05.284
01:16:33.130 : en:01:16:33.130
01:20:48.802 : en:01:20:48.802
загрузка...
Правила, инструкции, FAQ!!!
Торрент  Добавлен [25 мар 2014, 20:38] Скачать торрент
Скачать торрент
[ Размер 19.2 КБ / Просмотров 4 ]

Статус  
 
Размер  3.73 ГБ
Приватный: Нет (DHT включён)
.torrent скачан  222
Как залить торрент? | Как скачать Torrent? | Как смотреть и слушать онлайн?  


     Отправить личное сообщение
   
Страница 1 из 1
Показать сообщения за:  Поле сортировки  
Начать новую тему Ответить на тему

   Похожие торренты   Автор   Ответы   Просмотры   Последнее сообщение 
В этой теме нет новых непрочитанных сообщений. Скачать торрент Рыцари королевства Крутизны / Knights of Badassdom (2013) WEB-DL 720p

в форуме 720p | 1080p, Размер: 2.87 ГБ, Здоровье: 0%

Anonymous

0
0|0

34
0

11 мар 2014, 14:44

Anonymous Перейти к последнему сообщению

В этой теме нет новых непрочитанных сообщений. Скачать торрент Рыцари королевства Крутизны / Knights of Badassdom (2013) WEB-DLRip

в форуме Комедии, Размер: 1.37 ГБ, Здоровье: 0%

Anonymous

0
0|0

62
0

11 мар 2014, 14:42

Anonymous Перейти к последнему сообщению

В этой теме нет новых непрочитанных сообщений. Скачать торрент Проверен Последние рыцари / Last Knights (2015) WEB-DL 720p | Чистый звук

в форуме 720p | 1080p, Размер: 3.71 ГБ, Здоровье: 100%

Anonymous

0
10168|1446

99
33509

08 апр 2015, 00:11

Anonymous Перейти к последнему сообщению

В этой теме нет новых непрочитанных сообщений. Скачать торрент Проверен Джастин и рыцари доблести в 3Д / Justin and the Knights of Valour 3D (Мануэль Сисилия / Manuel Sicilia) [2013, Мультфильм, Приключения, BDrip, 1080p] OverUnder / Вертикальная стереопара

в форуме 3D Мультфильмы, Размер: 7.43 ГБ, Здоровье: 100%

Anonymous

0
2|1

5
0

07 сен 2016, 18:19

Anonymous Перейти к последнему сообщению

В этой теме нет новых непрочитанных сообщений. Скачать торрент Проверен Последние рыцари / Last Knights (2014) BDRip [576p] iPad

в форуме Фильмы для iPod, iPhone, iPad, Размер: 1.94 ГБ, Здоровье: 100%

Гость

0
14|2

55
1

13 сен 2015, 01:28

Гость Перейти к последнему сообщению



Сейчас этот форум просматривают: нет зарегистрированных пользователей и гости: 1


Вы не можете начинать темы
Вы не можете отвечать на сообщения
Вы не можете редактировать свои сообщения
Вы не можете удалять свои сообщения
Вы не можете добавлять вложения

Перейти:  

!ВНИМАНИЕ!
 Ресурс не предоставляет электронные версии произведений, а занимается лишь коллекционированием и каталогизацией ссылок, присылаемых и публикуемых на форуме нашими читателями. Если вы являетесь правообладателем какого-либо представленного материала и не желаете чтобы ссылка на него находилась в нашем каталоге, свяжитесь с нами и мы незамедлительно удалим её. Файлы для обмена на трекере предоставлены пользователями сайта, и администрация не несёт ответственности за их содержание. Просьба не заливать файлы, защищенные авторскими правами, а также файлы нелегального содержания!