На всех торрентах на трекере установлена скидка на скачивание в размере 100 процентов(а).
 Возможность скачивания торрента НЕ зависит от ограничений при низком ратио, низком аплоаде, требуемом ратио или требуемом аплоаде.


Начать новую тему Ответить на тему
Статистика раздачи
Размер: 4.01 ГБ | Добавлен: 25 мар 2014, 07:28 | Скачали: 148
Сидеров: 12  [0 байт/сек]    Личеров: 0  [0 байт/сек]
Пред. тема | След. тема 

Автор
Сообщение

СообщениеДобавлено: 25 мар 2014, 07:28 

Вкратце:
Семья Берг отправляется в путешествие по Африке, чтобы принять участие в спасении исчезающих видов животных. И взрослые, и дети получают незабываемые впечатления от дикой природы Африки, переживают опасности, противостоят браконьерам.


Название: Мои африканские приключения
Оригинальное название: Min sosters born i Afrika
Год выхода: 2013
Жанр: комедия, приключения, семейный
Режиссер: Мартин Миэ-Ренар

В ролях: Петер Мюгинд, Милле Динесен, Роберт Хансен, Вибеке Хаструп, Дитте Хансен, Вики Брукер





Выпущено: Дания
Продолжительность: 01:16:37
Озвучивание: Профессиональное (многоголосое) [Нтв+]


Формат: MKV
Качество: BDRip 720p [BLUEYES]
Видео: 6662 kb/s, 1280x688
Аудио: Russian: AC3, 192 kb/s (2 ch) / Danish: AC3, 640 kb/s (6 ch)

Скачать: Сэмпл

Релиз группы:



Общее
Min.Sosters.Born.i.Afrika.2013.Blu.Ray.720p.CINEMANIA.mkv
Формат : Matroska
Версия формата : Version 4 / Version 2
Размер файла : 4,01 Гбайт
Продолжительность : 1 ч. 16 м.
Общий поток : 7495 Кбит/сек
Название фильма : Release Group CINEMANIA
Дата кодирования : UTC 2014-03-24 23:27:00
Программа кодирования : mkvmerge v6.8.0 ('Theme for Great Cities') 64bit built on Mar 2 2014 21:34:26
Библиотека кодирования : libebml v1.3.0 + libmatroska v1.4.1

Видео
Идентификатор : 1
Формат : AVC
Формат/Информация : Advanced Video Codec
Профиль формата : High@L4.1
Параметр CABAC формата : Да
Параметр ReFrames формата : 5 кадров
Идентификатор кодека : V_MPEG4/ISO/AVC
Продолжительность : 1 ч. 16 м.
Битрейт : 6662 Кбит/сек
Ширина : 1280 пикселей
Высота : 688 пикселей
Соотношение сторон : 1,85:1
Режим частоты кадров : Постоянный
Частота кадров : 25,000 кадров/сек
Цветовое пространство : YUV
Субдискретизация насыщенности : 4:2:0
Битовая глубина : 8 бит
Тип развёртки : Прогрессивная
Бит/(Пиксели*Кадры) : 0.303
Размер потока : 3,49 Гбайт (87%)
Заголовок : Release Group CINEMANIA
Библиотека кодирования : x264 core 133 r2334 a3ac64b
Настройки программы : cabac=1 / ref=5 / deblock=1:0:0 / analyse=0x3:0x133 / me=umh / subme=7 / psy=1 / psy_rd=1.00:0.00 / mixed_ref=1 / me_range=16 / chroma_me=1 / trellis=1 / 8x8dct=1 / cqm=0 / deadzone=21,11 / fast_pskip=0 / chroma_qp_offset=-2 / threads=12 / lookahead_threads=2 / sliced_threads=0 / nr=0 / decimate=1 / interlaced=0 / bluray_compat=0 / constrained_intra=0 / bframes=3 / b_pyramid=2 / b_adapt=1 / b_bias=0 / direct=1 / weightb=1 / open_gop=0 / weightp=2 / keyint=250 / keyint_min=25 / scenecut=40 / intra_refresh=0 / rc_lookahead=40 / rc=2pass / mbtree=1 / bitrate=6662 / ratetol=1.0 / qcomp=0.60 / qpmin=0 / qpmax=69 / qpstep=4 / cplxblur=20.0 / qblur=0.5 / ip_ratio=1.40 / aq=1:1.00
Язык : Danish
Default : Да
Forced : Нет

Аудио #1
Идентификатор : 2
Формат : AC-3
Формат/Информация : Audio Coding 3
Расширение режима : CM (complete main)
Параметр Endianness формата : Big
Идентификатор кодека : A_AC3
Продолжительность : 1 ч. 16 м.
Вид битрейта : Постоянный
Битрейт : 192 Кбит/сек
Каналы : 2 канала
Расположение каналов : Front: L R
Частота : 48,0 КГц
Битовая глубина : 16 бит
Метод сжатия : С потерями
Размер потока : 105 Мбайт (3%)
Заголовок : Нтв+
Язык : Russian
Default : Да
Forced : Да

Аудио #2
Идентификатор : 3
Формат : AC-3
Формат/Информация : Audio Coding 3
Расширение режима : CM (complete main)
Параметр Endianness формата : Big
Идентификатор кодека : A_AC3
Продолжительность : 1 ч. 16 м.
Вид битрейта : Постоянный
Битрейт : 640 Кбит/сек
Каналы : 6 каналов
Расположение каналов : Front: L C R, Side: L R, LFE
Частота : 48,0 КГц
Битовая глубина : 16 бит
Метод сжатия : С потерями
Размер потока : 351 Мбайт (9%)
Язык : Danish
Default : Нет
Forced : Нет
загрузка...
Правила, инструкции, FAQ!!!
Торрент  Добавлен [25 мар 2014, 07:28] Скачать торрент
Скачать торрент
[ Размер 20.63 КБ / Просмотров 6 ]

Статус  
 
Размер  4.01 ГБ
Приватный: Нет (DHT включён)
.torrent скачан  148
Как залить торрент? | Как скачать Torrent? | Как смотреть и слушать онлайн?  


     Отправить личное сообщение
   
Страница 1 из 1
Показать сообщения за:  Поле сортировки  
Начать новую тему Ответить на тему

   Похожие торренты   Автор   Ответы   Просмотры   Последнее сообщение 
В этой теме нет новых непрочитанных сообщений. Скачать торрент Мои африканские приключения / Min sosters born i Afrika (2013) HDRip | НТВ+

в форуме Комедии, Размер: 1.37 ГБ, Здоровье: 0%

Anonymous

0
0|0

23
0

25 мар 2014, 06:27

Anonymous Перейти к последнему сообщению

В этой теме нет новых непрочитанных сообщений. Скачать торрент Час рыси / I Lossens Time / The Hour of the Lynx (2013) BDRip 1080p от CINEMANIA | L2

в форуме 720p | 1080p, Размер: 8.87 ГБ, Здоровье: 0%

Anonymous

0
0|0

1079
0

14 фев 2014, 18:13

Anonymous Перейти к последнему сообщению

В этой теме нет новых непрочитанных сообщений. Скачать торрент Белка и Стрелка: Лунные приключения (2013) BDRip 720p | Лицензия

в форуме Отечественные мультфильмы (HD Video), Размер: 2.77 ГБ, Здоровье: 0%

Anonymous

0
0|0

181
0

29 мар 2014, 08:47

Anonymous Перейти к последнему сообщению

В этой теме нет новых непрочитанных сообщений. Скачать торрент Невероятные приключения кота / Oggy et les cafards (2013) BDRip 720p

в форуме Зарубежные мультфильмы (HD Video), Размер: 2.18 ГБ, Здоровье: 0%

Anonymous

0
0|0

62
0

15 дек 2013, 19:19

Anonymous Перейти к последнему сообщению

В этой теме нет новых непрочитанных сообщений. Скачать торрент Альфа и Омега: Приключения праздничного воя / Alpha and Omega 2: A Howl-iday Adventure (2013) BDRip 720p | P

в форуме Зарубежные мультфильмы (HD Video), Размер: 2.02 ГБ, Здоровье: 100%

Anonymous

0
46|2

169
56

06 дек 2013, 23:42

Anonymous Перейти к последнему сообщению



Сейчас этот форум просматривают: нет зарегистрированных пользователей и гости: 1


Вы не можете начинать темы
Вы не можете отвечать на сообщения
Вы не можете редактировать свои сообщения
Вы не можете удалять свои сообщения
Вы не можете добавлять вложения

Перейти:  

!ВНИМАНИЕ!
 Ресурс не предоставляет электронные версии произведений, а занимается лишь коллекционированием и каталогизацией ссылок, присылаемых и публикуемых на форуме нашими читателями. Если вы являетесь правообладателем какого-либо представленного материала и не желаете чтобы ссылка на него находилась в нашем каталоге, свяжитесь с нами и мы незамедлительно удалим её. Файлы для обмена на трекере предоставлены пользователями сайта, и администрация не несёт ответственности за их содержание. Просьба не заливать файлы, защищенные авторскими правами, а также файлы нелегального содержания!