На всех торрентах на трекере установлена скидка на скачивание в размере 100 процентов(а).
 Возможность скачивания торрента НЕ зависит от ограничений при низком ратио, низком аплоаде, требуемом ратио или требуемом аплоаде.


Начать новую тему Ответить на тему
Статистика раздачи
Размер: 7.95 ГБ | Добавлен: 23 мар 2014, 20:28 | Скачали: 34
Сидеров: 4  [0 байт/сек]    Личеров: 0  [0 байт/сек]
Пред. тема | След. тема 

Автор
Сообщение

СообщениеДобавлено: 23 мар 2014, 20:28 

Название: На расстоянии удара
Оригинальное название: Striking Distance
Год выхода: 1993
Жанр: Детектив, триллер
Режиссер: Роуди Херрингтон

В ролях: Брюс Уиллис, Сара Джессика Паркер, Дэннис Фарина, Том Сайзмор, Брайон Джеймс, Роберт Пасторелли, Тимоти Басфилд, Джон Махони

Сюжет фильма:

Полицейский Том Харди, переведённый в отряд речной полиции, начинает вести неофициальное расследование по делу серийного убийцы, терроризирующего город. Его версия о преступнике отличается от той, которой придерживаются власти и коллеги. Он уверен, что маньяк — работник полиции, и только его напарница поддерживает эту идею. Продолжая поиск убийцы, они не догадываются о том, что тот, кого они разыскивают с таким упорством, сам ищет встречи с ними...



Выпущено: США, Columbia Pictures
Продолжительность: США, Columbia Pictures
Перевод: Дублированный; Многоголосый закадровый, R5; Одноголосый закадровый, А.Гаврилов; Английский

Качество: BDRip 1080p (исходник Blu-ray Disc)
Видео: 1920х1040, 9 715 кбит/сек, 23.976 кадр/сек, AVC, x264, 0.203 Бит/(Пиксели*Кадры), 2-pass
Аудио1: AC-3, 192 Кбит/сек, 2 канала(ов), 48,0 КГц - Дублированный - (по умолчанию)
Аудио2: AC-3, 192 Кбит/сек, 2 канала(ов), 48,0 КГц - Многоголосый закадровый, R5
Аудио3: AC-3, 640 Кбит/сек, 6 канала(ов), 48,0 КГц - Одноголосый закадровый, А.Гаврилов
Аудио4: AC-3, 448 Кбит/сек, 6 канала(ов), 48,0 КГц - Английский



Format : Matroska
Format version : Version 4 / Version 2
File size : 7.95 GiB
Duration : 1h 41mn
Overall bit rate : 11.2 Mbps
Movie name : На расстоянии удара.(1993).BDRip.1080p.NoLimits-Team
Encoded date : UTC 2013-07-12 08:21:33
Writing application : mkvmerge v6.3.0 ('You can't stop me!') built on Jun 28 2013 20:09:41
Writing library : libebml v1.3.0 + libmatroska v1.4.0

Video
ID : 1
Format : AVC
Format/Info : Advanced Video Codec
Format profile : High@L4.1
Format settings, CABAC : Yes
Format settings, ReFrames : 4 frames
Codec ID : V_MPEG4/ISO/AVC
Duration : 1h 41mn
Bit rate : 9 715 Kbps
Width : 1 920 pixels
Height : 1 040 pixels
Display aspect ratio : 1.85:1
Frame rate mode : Constant
Frame rate : 23.976 fps
Color space : YUV
Chroma subsampling : 4:2:0
Bit depth : 8 bits
Scan type : Progressive
Bits/(Pixel*Frame) : 0.203
Stream size : 6.74 GiB (85%)
Title : На расстоянии удара.(1993).BDRip.1080p от NoLimits-Team Release_denis_100
Writing library : x264 core 133 r2334 a3ac64b
Encoding settings : cabac=1 / ref=4 / deblock=1:-3:-3 / analyse=0x3:0x113 / me=umh / subme=11 / psy=1 / psy_rd=1.00:0.10 / mixed_ref=1 / me_range=32 / chroma_me=1 / trellis=2 / 8x8dct=1 / cqm=0 / deadzone=21,11 / fast_pskip=0 / chroma_qp_offset=-3 / threads=6 / lookahead_threads=1 / sliced_threads=0 / nr=0 / decimate=0 / interlaced=0 / bluray_compat=0 / constrained_intra=0 / bframes=6 / b_pyramid=2 / b_adapt=2 / b_bias=0 / direct=3 / weightb=1 / open_gop=0 / weightp=2 / keyint=240 / keyint_min=23 / scenecut=40 / intra_refresh=0 / rc_lookahead=60 / rc=2pass / mbtree=1 / bitrate=9715 / ratetol=1.0 / qcomp=0.60 / qpmin=0 / qpmax=69 / qpstep=4 / cplxblur=20.0 / qblur=0.5 / ip_ratio=1.40 / aq=1:0.95
Language : English
Default : Yes
Forced : No

Audio #1
ID : 2
Format : AC-3
Format/Info : Audio Coding 3
Format profile : Dolby Digital
Mode extension : CM (complete main)
Format settings, Endianness : Big
Codec ID : A_AC3
Duration : 1h 41mn
Bit rate mode : Constant
Bit rate : 192 Kbps
Channel(s) : 2 channels
Channel positions : Front: L R
Sampling rate : 48.0 KHz
Bit depth : 16 bits
Compression mode : Lossy
Stream size : 140 MiB (2%)
Title : Дубляж, R5
Language : Russian
Default : Yes
Forced : No

Audio #2
ID : 3
Format : AC-3
Format/Info : Audio Coding 3
Format profile : Dolby Digital
Mode extension : CM (complete main)
Format settings, Endianness : Big
Codec ID : A_AC3
Duration : 1h 41mn
Bit rate mode : Constant
Bit rate : 192 Kbps
Channel(s) : 2 channels
Channel positions : Front: L R
Sampling rate : 48.0 KHz
Bit depth : 16 bits
Compression mode : Lossy
Stream size : 140 MiB (2%)
Title : Многоголосый закадровый, R5
Language : Russian
Default : No
Forced : No

Audio #3
ID : 4
Format : AC-3
Format/Info : Audio Coding 3
Mode extension : CM (complete main)
Format settings, Endianness : Big
Codec ID : A_AC3
Duration : 1h 41mn
Bit rate mode : Constant
Bit rate : 640 Kbps
Channel(s) : 6 channels
Channel positions : Front: L C R, Side: L R, LFE
Sampling rate : 48.0 KHz
Bit depth : 16 bits
Compression mode : Lossy
Stream size : 466 MiB (6%)
Title : Одноголосый закадровый, А.Гаврилов
Language : Russian
Default : No
Forced : No

Audio #4
ID : 5
Format : AC-3
Format/Info : Audio Coding 3
Mode extension : CM (complete main)
Format settings, Endianness : Big
Codec ID : A_AC3
Duration : 1h 41mn
Bit rate mode : Constant
Bit rate : 448 Kbps
Channel(s) : 6 channels
Channel positions : Front: L C R, Side: L R, LFE
Sampling rate : 48.0 KHz
Bit depth : 16 bits
Compression mode : Lossy
Stream size : 326 MiB (4%)
Title : English
Language : English
Default : No
Forced : No

Menu
00:00:00.000 : en:00:00:00.000
00:05:59.942 : en:00:05:59.942
00:12:58.527 : en:00:12:58.527
00:18:49.044 : en:00:18:49.044
00:25:05.837 : en:00:25:05.837
00:31:06.781 : en:00:31:06.781
00:37:49.058 : en:00:37:49.058
00:43:44.413 : en:00:43:44.413
00:46:15.439 : en:00:46:15.439
00:53:48.725 : en:00:53:48.725
01:00:23.119 : en:01:00:23.119
01:08:09.335 : en:01:08:09.335
01:12:46.945 : en:01:12:46.945
01:20:55.392 : en:01:20:55.392
01:31:17.638 : en:01:31:17.638
01:33:52.084 : en:01:33:52.084

Релиз Группа: Автор Рипа:

загрузка...
Правила, инструкции, FAQ!!!
Торрент  Добавлен [23 мар 2014, 20:28] Скачать торрент
Скачать торрент
[ Размер 40.28 КБ / Просмотров 14 ]

Статус  
 
Размер  7.95 ГБ
Приватный: Нет (DHT включён)
.torrent скачан  34
Как залить торрент? | Как скачать Torrent? | Как смотреть и слушать онлайн?  


     Отправить личное сообщение
   
Страница 1 из 1
Показать сообщения за:  Поле сортировки  
Начать новую тему Ответить на тему

   Похожие торренты   Автор   Ответы   Просмотры   Последнее сообщение 
В этой теме нет новых непрочитанных сообщений. Скачать торрент На расстоянии удара / Striking Distance (1993) HDRip | D

в форуме Детективы, Размер: 1.45 ГБ, Здоровье: 100%

Anonymous

0
40|7

136
17

23 мар 2014, 20:23

Anonymous Перейти к последнему сообщению

В этой теме нет новых непрочитанных сообщений. Скачать торрент На расстоянии любви / Going the Distance (Нанетт Бурстейн / Nanette Burstein) [2010 г., Мелодрама, комедия, BDRip] Dub + Original + Subs (Rus, Eng)

в форуме Драмы, Мелодрамы, Размер: 2.18 ГБ, Здоровье: 0%

Anonymous

0
0|0

15
0

16 фев 2014, 13:06

Anonymous Перейти к последнему сообщению

В этой теме нет новых непрочитанных сообщений. Скачать торрент На расстоянии любви / Going the Distance (Нанетт Бурстейн / Nanette Burstein) [2010, США, Комедия, мелодрама, HDRip] Dub [лицензия]

в форуме Комедии, Размер: 1.46 ГБ, Здоровье: 0%

Anonymous

0
0|0

26
0

03 апр 2014, 12:42

Anonymous Перейти к последнему сообщению

В этой теме нет новых непрочитанных сообщений. Скачать торрент Проверен (Progressive Rock) Proximal Distance - Proximal Distance 2010 (Proximal Distance 884502394603), FLAC (image+.cue) lossless

в форуме Progressive & Art-Rock, Размер: 477.33 МБ, Здоровье: 0%

Anonymous

0
0|0

0
0

31 авг 2016, 18:08

Anonymous Перейти к последнему сообщению

В этой теме нет новых непрочитанных сообщений. Скачать торрент Проверен (Melodic Hard Rock / AOR) The Distance - The Distance - 1997, MP3 (tracks), 320 kbps

в форуме AOR (Melodic Hard Rock, Arena rock), Размер: 107.24 МБ, Здоровье: 100%

Anonymous

0
5|1

0
0

08 окт 2016, 11:14

Anonymous Перейти к последнему сообщению



Сейчас этот форум просматривают: нет зарегистрированных пользователей и гости: 1


Вы не можете начинать темы
Вы не можете отвечать на сообщения
Вы не можете редактировать свои сообщения
Вы не можете удалять свои сообщения
Вы не можете добавлять вложения

Перейти:  

!ВНИМАНИЕ!
 Ресурс не предоставляет электронные версии произведений, а занимается лишь коллекционированием и каталогизацией ссылок, присылаемых и публикуемых на форуме нашими читателями. Если вы являетесь правообладателем какого-либо представленного материала и не желаете чтобы ссылка на него находилась в нашем каталоге, свяжитесь с нами и мы незамедлительно удалим её. Файлы для обмена на трекере предоставлены пользователями сайта, и администрация не несёт ответственности за их содержание. Просьба не заливать файлы, защищенные авторскими правами, а также файлы нелегального содержания!