На всех торрентах на трекере установлена скидка на скачивание в размере 100 процентов(а).
 Возможность скачивания торрента НЕ зависит от ограничений при низком ратио, низком аплоаде, требуемом ратио или требуемом аплоаде.


Начать новую тему Ответить на тему
Статистика раздачи
Размер: 7.75 ГБ | Добавлен: 23 мар 2014, 13:30 | Скачали: 451
Сидеров: 100  [0 байт/сек]    Личеров: 1  [0 байт/сек]
Пред. тема | След. тема 

Автор
Сообщение

СообщениеДобавлено: 23 мар 2014, 13:30 

Информация о фильме
Название: Время
Оригинальное название: In Time
Год выхода: 2011
Жанр: фантастика, триллер, драма, мелодрама, криминал
Режиссер: Эндрю Никкол



В ролях: Джастин Тимберлэйк, Аманда Сайфред, Киллиан Мёрфи, Алекс Петтифер, Винсент Картайзер, Джонни Галэки, Коллинс Пенни, Тоби Хемингуэй, Оливия Уайлд

О ФИЛЬМЕ
Добро пожаловать в мир, где время стало единственной и самой твердой валютой, где люди генетически запрограммированы так, что в 25 лет перестают стареть. Правда, последующие годы стоят денег. И вот богатые становятся практически бессмертными, а бедные, как всегда, обречены сражаться за жизнь.
Уилл, бунтарь из гетто, несправедливо обвинен в убийстве с целью грабежа времени и вынужден, захватив заложницу, пуститься в бега. Так, ежеминутно рискуя жизнью, эти двое становятся грозным оружием в борьбе с системой. Но вот вопрос: кто кого? А может быть, в дело вмешается третья сила?..



Страна: США
Производство: New Regency Pictures, Regency Enterprises, Strike Entertainment
Продолжительность: 01:49:17
Перевод 1: Профессиональный (полное дублирование) [Лицензия]
Перевод 2: Авторский (одноголосый) [Сербин]
Перевод 3: Авторский (одноголосый) [Гаврилов]

Файл
Качество: BDRip 1080p
Формат: MKV
Видео: AVC, 1920x816 (2.35:1) at 23.976 fps, AVC at 7917 kbps avg, 0.211 bit/pixel
Аудио: AC3 / 6ch / 448 kbps | DUB, Сербин, Гаврилов, Украинский, Original
Субтитры: Русские, Английские
Дополнительно: Сохранены оригинальные чаптеры как на Blu-Ray






General
Unique ID : 217975847571015299707562930743744199809 (0xA3FC9F06E625D34285853A3F5B10FC81)
Complete name : H:In.Time.2011.BD.1080.Hot-Film.mkv
Format : Matroska
Format version : Version 2
File size : 7.75 GiB
Duration : 01:49:17
Overall bit rate : 10.2 Mbps
Encoded date : UTC 2014-03-22 15:39:07
Writing application : mkvmerge v5.8.0 ('No Sleep / Pillow') built on Sep 2 2012 15:37:04
Writing library : libebml v1.2.3 + libmatroska v1.3.0
Attachment : Yes

Video
ID : 1
Format : AVC
Format/Info : Advanced Video Codec
Format profile : High@L4.1
Format settings, CABAC : Yes
Format settings, ReFrames : 4 frames
Codec ID : V_MPEG4/ISO/AVC
Duration : 1h 49mn
Bit rate : 7 917 Kbps
Width : 1 920 pixels
Height : 816 pixels
Display aspect ratio : 2.35:1
Frame rate mode : Constant
Frame rate : 23.976 fps
Color space : YUV
Chroma subsampling : 4:2:0
Bit depth : 8 bits
Scan type : Progressive
Bits/(Pixel*Frame) : 0.211
Stream size : 5.89 GiB (76%)
Writing library : x264 core 138 r2358 9e941d1
Encoding settings : cabac=1 / ref=4 / deblock=1:-3:-3 / analyse=0x3:0x113 / me=umh / subme=11 / psy=1 / psy_rd=1.00:0.10 / mixed_ref=1 / me_range=32 / chroma_me=1 / trellis=2 / 8x8dct=1 / cqm=0 / deadzone=21,11 / fast_pskip=0 / chroma_qp_offset=-3 / threads=2 / lookahead_threads=1 / sliced_threads=0 / nr=0 / decimate=0 / interlaced=0 / bluray_compat=0 / constrained_intra=0 / bframes=8 / b_pyramid=2 / b_adapt=2 / b_bias=0 / direct=3 / weightb=1 / open_gop=0 / weightp=2 / keyint=240 / keyint_min=23 / scenecut=40 / intra_refresh=0 / rc_lookahead=40 / rc=2pass / mbtree=0 / bitrate=7917 / ratetol=1.0 / qcomp=0.60 / qpmin=0 / qpmax=69 / qpstep=4 / cplxblur=20.0 / qblur=0.5 / vbv_maxrate=50000 / vbv_bufsize=62500 / nal_hrd=none / ip_ratio=1.40 / pb_ratio=1.30 / aq=1:0.80
Language : English
Default : Yes
Forced : No

Audio #1
ID : 2
Format : AC-3
Format/Info : Audio Coding 3
Mode extension : CM (complete main)
Format settings, Endianness : Big
Codec ID : A_AC3
Duration : 1h 49mn
Bit rate mode : Constant
Bit rate : 448 Kbps
Channel(s) : 6 channels
Channel positions : Front: L C R, Side: L R, LFE
Sampling rate : 48.0 KHz
Bit depth : 16 bits
Compression mode : Lossy
Stream size : 350 MiB (4%)
Title : DUB
Language : Russian
Default : Yes
Forced : No

Audio #2
ID : 3
Format : AC-3
Format/Info : Audio Coding 3
Mode extension : CM (complete main)
Format settings, Endianness : Big
Codec ID : A_AC3
Duration : 1h 49mn
Bit rate mode : Constant
Bit rate : 448 Kbps
Channel(s) : 6 channels
Channel positions : Front: L C R, Side: L R, LFE
Sampling rate : 48.0 KHz
Bit depth : 16 bits
Compression mode : Lossy
Stream size : 350 MiB (4%)
Title : Сербин
Language : Russian
Default : No
Forced : No

Audio #3
ID : 4
Format : AC-3
Format/Info : Audio Coding 3
Mode extension : CM (complete main)
Format settings, Endianness : Big
Codec ID : A_AC3
Duration : 1h 49mn
Bit rate mode : Constant
Bit rate : 448 Kbps
Channel(s) : 6 channels
Channel positions : Front: L C R, Side: L R, LFE
Sampling rate : 48.0 KHz
Bit depth : 16 bits
Compression mode : Lossy
Stream size : 350 MiB (4%)
Title : Гаврилов
Language : Russian
Default : No
Forced : No

Audio #4
ID : 5
Format : AC-3
Format/Info : Audio Coding 3
Mode extension : CM (complete main)
Format settings, Endianness : Big
Codec ID : A_AC3
Duration : 1h 49mn
Bit rate mode : Constant
Bit rate : 448 Kbps
Channel(s) : 6 channels
Channel positions : Front: L C R, Side: L R, LFE
Sampling rate : 48.0 KHz
Bit depth : 16 bits
Compression mode : Lossy
Stream size : 350 MiB (4%)
Title : DUB
Language : Ukrainian
Default : No
Forced : No

Audio #5
ID : 6
Format : AC-3
Format/Info : Audio Coding 3
Mode extension : CM (complete main)
Format settings, Endianness : Big
Codec ID : A_AC3
Duration : 1h 49mn
Bit rate mode : Constant
Bit rate : 448 Kbps
Channel(s) : 6 channels
Channel positions : Front: L C R, Side: L R, LFE
Sampling rate : 48.0 KHz
Bit depth : 16 bits
Compression mode : Lossy
Stream size : 350 MiB (4%)
Title : Original
Language : English
Default : No
Forced : No

Text #1
ID : 7
Format : UTF-8
Codec ID : S_TEXT/UTF8
Codec ID/Info : UTF-8 Plain Text
Language : Russian
Default : No
Forced : No

Text #2
ID : 8
Format : UTF-8
Codec ID : S_TEXT/UTF8
Codec ID/Info : UTF-8 Plain Text
Language : English
Default : No
Forced : No

Menu
00:00:00.000 : :Chapter 01
00:05:54.270 : :Chapter 02
00:10:50.733 : :Chapter 03
00:18:58.095 : :Chapter 04
00:22:16.376 : :Chapter 05
00:25:30.445 : :Chapter 06
00:29:51.915 : :Chapter 07
00:34:41.746 : :Chapter 08
00:38:24.885 : :Chapter 09
00:41:23.898 : :Chapter 10
00:44:44.723 : :Chapter 11
00:48:08.302 : :Chapter 12
00:51:32.547 : :Chapter 13
00:53:56.149 : :Chapter 14
00:56:16.873 : :Chapter 15
01:00:25.371 : :Chapter 16
01:05:41.145 : :Chapter 17
01:08:57.800 : :Chapter 18
01:11:19.483 : :Chapter 19
01:14:05.107 : :Chapter 20
01:16:48.979 : :Chapter 21
01:20:20.982 : :Chapter 22
01:22:44.292 : :Chapter 23
01:27:17.106 : :Chapter 24
01:29:22.398 : :Chapter 25
01:33:26.017 : :Chapter 26
01:37:16.956 : :Chapter 27
01:42:56.461 : :Chapter 28

Релиз от:
загрузка...
Правила, инструкции, FAQ!!!
Торрент  Добавлен [23 мар 2014, 13:30] Скачать торрент
Скачать торрент
[ Размер 39.32 КБ / Просмотров 35 ]

Статус  
 
Размер  7.75 ГБ
Приватный: Нет (DHT включён)
.torrent скачан  451
Как залить торрент? | Как скачать Torrent? | Как смотреть и слушать онлайн?  


     Отправить личное сообщение
   
Страница 1 из 1
Показать сообщения за:  Поле сортировки  
Начать новую тему Ответить на тему

   Похожие торренты   Автор   Ответы   Просмотры   Последнее сообщение 
В этой теме нет новых непрочитанных сообщений. Скачать торрент Проверен Mr. Big - Back To Budokan (Next Time Around 2009 Tour) [2011, Hard rock, BDRip 1080p]

в форуме Концерты (HD-Video), Размер: 13.97 ГБ, Здоровье: 0%

Гость

0
0|0

36
0

01 май 2015, 19:59

Гость Перейти к последнему сообщению

В этой теме нет новых непрочитанных сообщений. Скачать торрент Проверен Ошибка времени / Time Lapse (2014) BDRip 1080p | L2

в форуме 720p | 1080p, Размер: 7.93 ГБ, Здоровье: 95%

Гость

0
116|121

250
110

13 ноя 2015, 16:02

Гость Перейти к последнему сообщению

В этой теме нет новых непрочитанных сообщений. Скачать торрент Бойфренд из будущего / About Time (2013) BDRip 1080p | Лицензия

в форуме 720p | 1080p, Размер: 10.71 ГБ, Здоровье: 0%

Anonymous

0
0|0

1081
0

02 янв 2014, 11:46

Anonymous Перейти к последнему сообщению

В этой теме нет новых непрочитанных сообщений. Скачать торрент Машина времени / The Time Machine (2002) BDRip 1080p

в форуме 720p | 1080p, Размер: 5.76 ГБ, Здоровье: 100%

Anonymous

0
52|3

35
573

20 апр 2014, 08:04

Anonymous Перейти к последнему сообщению

В этой теме нет новых непрочитанных сообщений. Скачать торрент Проверен Однажды в Америке / Once Upon a Time in America (1984) BDRip 1080p | Extended Cut

в форуме 720p | 1080p, Размер: 15.52 ГБ, Здоровье: 100%

Anonymous

0
28|3

59
253

22 май 2014, 22:54

Anonymous Перейти к последнему сообщению



Сейчас этот форум просматривают: нет зарегистрированных пользователей и гости: 4


Вы не можете начинать темы
Вы не можете отвечать на сообщения
Вы не можете редактировать свои сообщения
Вы не можете удалять свои сообщения
Вы не можете добавлять вложения

Перейти:  

!ВНИМАНИЕ!
 Ресурс не предоставляет электронные версии произведений, а занимается лишь коллекционированием и каталогизацией ссылок, присылаемых и публикуемых на форуме нашими читателями. Если вы являетесь правообладателем какого-либо представленного материала и не желаете чтобы ссылка на него находилась в нашем каталоге, свяжитесь с нами и мы незамедлительно удалим её. Файлы для обмена на трекере предоставлены пользователями сайта, и администрация не несёт ответственности за их содержание. Просьба не заливать файлы, защищенные авторскими правами, а также файлы нелегального содержания!