На всех торрентах на трекере установлена скидка на скачивание в размере 100 процентов(а).
 Возможность скачивания торрента НЕ зависит от ограничений при низком ратио, низком аплоаде, требуемом ратио или требуемом аплоаде.


Начать новую тему Ответить на тему
Статистика раздачи
Размер: 4.49 ГБ | Добавлен: 21 мар 2014, 08:15 | Скачали: 24
Сидеров: 2  [0 байт/сек]    Личеров: 0  [0 байт/сек]
Пред. тема | След. тема 

Автор
Сообщение

СообщениеДобавлено: 21 мар 2014, 08:15 

Название: Синий каприз
Оригинальное название: Blue Caprice
Год выхода: 2013
Жанр: драма, криминал
Режиссер: Александр Мурс

В ролях: Исайя Вашингтон, Джои Лорен Эдамс, Тим Блейк Нельсон, Лео Фицпатрик, Текуан Ричмонд, Эл Сапьенза

О фильме:
В 2002 году в США произошла цепочка жестоких убийств. Виновниками гибели десяти человек оказались двое мужчин, впоследствии названных «снайперами кольцевой дороги». Жертвы ничем не досаждали им и были выбраны совершенно случайно, поэтому полиция далеко не сразу смогла среагировать и остановить развернувшийся на дороге террор. Когда же убийц, проехавших по трем штатам, наконец остановили, выяснилось, что стрелками были Джон Мухаммед, примерный на первый взгляд гражданин, и Ли Мальво – подобранный им мальчик, который в лице Джона обрел учителя и отца.

Их сочли экстремистами и отдали под суд, однако в этом ли причина ужасных преступлений, на которые пошли Ли и Джон? Джон сделал из подростка своего солдата, вливая ему в уши учение тотальной ненависти, и в конечном итоге Ли Мальво поверил во все, чему его научил новый знакомый. Причины, которые толкнули их на массовое убийство, в действительности намного весомее любых политических и религиозных взглядов.



Выпущено: США
Продолжительность: 01:33:08
Озвучивание: Любительское (одноголосое) [datynet]


Формат: MKV
Качество: BDRip 720p [GECKOS]
Видео: 5203 kb/s, 1280x536
Аудио: Russian: AC3, 192 kb/s (2 ch) / English: DTS, 1510 kb/s (6 ch)
Субтитры: Russian [sonnyb], English
Дополнительно: Сохранены оригинальные чаптеры как на Blu-Ray

Скачать: Сэмпл

Релиз группы:




Общее
Blue.Caprice.2013.Blu.Ray.720p.CINEMANIA.mkv
Формат : Matroska
Версия формата : Version 4 / Version 2
Размер файла : 4,49 Гбайт
Продолжительность : 1 ч. 33 м.
Общий поток : 6901 Кбит/сек
Название фильма : Release Group CINEMANIA
Дата кодирования : UTC 2014-03-20 22:33:54
Программа кодирования : mkvmerge v6.8.0 ('Theme for Great Cities') 64bit built on Mar 2 2014 21:34:26
Библиотека кодирования : libebml v1.3.0 + libmatroska v1.4.1

Видео
Идентификатор : 1
Формат : AVC
Формат/Информация : Advanced Video Codec
Профиль формата : High@L4.1
Параметр CABAC формата : Да
Параметр ReFrames формата : 5 кадров
Идентификатор кодека : V_MPEG4/ISO/AVC
Продолжительность : 1 ч. 33 м.
Битрейт : 5203 Кбит/сек
Ширина : 1280 пикселей
Высота : 536 пикселей
Соотношение сторон : 2,40:1
Режим частоты кадров : Постоянный
Частота кадров : 23,976 кадра/сек
Цветовое пространство : YUV
Субдискретизация насыщенности : 4:2:0
Битовая глубина : 8 бит
Тип развёртки : Прогрессивная
Бит/(Пиксели*Кадры) : 0.316
Размер потока : 3,29 Гбайт (73%)
Заголовок : Release Group CINEMANIA
Библиотека кодирования : x264 core 140 r2377 1ca7bb9
Настройки программы : cabac=1 / ref=5 / deblock=1:0:0 / analyse=0x3:0x133 / me=umh / subme=7 / psy=1 / psy_rd=1.00:0.00 / mixed_ref=1 / me_range=16 / chroma_me=1 / trellis=1 / 8x8dct=1 / cqm=0 / deadzone=21,11 / fast_pskip=0 / chroma_qp_offset=-2 / threads=12 / lookahead_threads=2 / sliced_threads=0 / nr=0 / decimate=1 / interlaced=0 / bluray_compat=0 / constrained_intra=0 / bframes=3 / b_pyramid=2 / b_adapt=1 / b_bias=0 / direct=1 / weightb=1 / open_gop=0 / weightp=2 / keyint=250 / keyint_min=23 / scenecut=40 / intra_refresh=0 / rc_lookahead=40 / rc=2pass / mbtree=1 / bitrate=5203 / ratetol=1.0 / qcomp=0.60 / qpmin=0 / qpmax=69 / qpstep=4 / cplxblur=20.0 / qblur=0.5 / ip_ratio=1.40 / aq=1:1.00
Язык : English
Default : Да
Forced : Нет

Аудио #1
Идентификатор : 2
Формат : AC-3
Формат/Информация : Audio Coding 3
Расширение режима : CM (complete main)
Параметр Endianness формата : Big
Идентификатор кодека : A_AC3
Продолжительность : 1 ч. 33 м.
Вид битрейта : Постоянный
Битрейт : 192 Кбит/сек
Каналы : 2 канала
Расположение каналов : Front: L R
Частота : 44,1 КГц
Битовая глубина : 16 бит
Метод сжатия : С потерями
Размер потока : 128 Мбайт (3%)
Заголовок : datynet
Язык : Russian
Default : Да
Forced : Да

Аудио #2
Идентификатор : 3
Формат : DTS
Формат/Информация : Digital Theater Systems
Режим : 16
Параметр Endianness формата : Big
Идентификатор кодека : A_DTS
Продолжительность : 1 ч. 33 м.
Вид битрейта : Постоянный
Битрейт : 1509 Кбит/сек
Каналы : 6 каналов
Расположение каналов : Front: L C R, Side: L R, LFE
Частота : 48,0 КГц
Битовая глубина : 24 бит
Метод сжатия : С потерями
Размер потока : 1005 Мбайт (22%)
Язык : English
Default : Нет
Forced : Нет

Текст #1
Идентификатор : 4
Формат : UTF-8
Идентификатор кодека : S_TEXT/UTF8
Идентификатор кодека/Информация : UTF-8 Plain Text
Заголовок : sonnyb
Язык : Russian
Default : Нет
Forced : Нет

Текст #2
Идентификатор : 5
Формат : UTF-8
Идентификатор кодека : S_TEXT/UTF8
Идентификатор кодека/Информация : UTF-8 Plain Text
Язык : English
Default : Нет
Forced : Нет

Меню
00:00:00.000 : en:00:00:00.000
00:09:09.924 : en:00:09:09.924
00:16:01.502 : en:00:16:01.502
00:23:40.753 : en:00:23:40.753
00:31:31.473 : en:00:31:31.473
00:40:21.544 : en:00:40:21.544
00:48:58.394 : en:00:48:58.394
00:55:19.024 : en:00:55:19.024
01:05:02.107 : en:01:05:02.107
01:11:28.743 : en:01:11:28.743
01:20:00.879 : en:01:20:00.879
01:29:59.686 : en:01:29:59.686
загрузка...
Правила, инструкции, FAQ!!!
Торрент  Добавлен [21 мар 2014, 08:15] Скачать торрент
Скачать торрент
[ Размер 23.02 КБ / Просмотров 5 ]

Статус  
 
Размер  4.49 ГБ
Приватный: Нет (DHT включён)
.torrent скачан  24
Как залить торрент? | Как скачать Torrent? | Как смотреть и слушать онлайн?  


     Отправить личное сообщение
   
Страница 1 из 1
Показать сообщения за:  Поле сортировки  
Начать новую тему Ответить на тему

   Похожие торренты   Автор   Ответы   Просмотры   Последнее сообщение 
В этой теме нет новых непрочитанных сообщений. Скачать торрент Синий Каприз / Blue Caprice (2013) WEB-DLRip | L1

в форуме Драмы, Мелодрамы, Размер: 1.35 ГБ, Здоровье: 0%

Anonymous

0
0|0

25
0

22 дек 2013, 17:41

Anonymous Перейти к последнему сообщению

В этой теме нет новых непрочитанных сообщений. Скачать торрент Проверен Синий зонтик в 3Д / The Blue Umbrella 3D (Сашка Унзельд / Saschka Unseld) [2013, Мультфильм, Короткометражка, BDrip-AVC] Half OverUnder / Вертикальная анаморфная стереопара

в форуме 3D Мультфильмы, Размер: 665.81 МБ, Здоровье: 0%

Anonymous

0
0|0

1
0

07 сен 2016, 17:55

Anonymous Перейти к последнему сообщению

В этой теме нет новых непрочитанных сообщений. Скачать торрент Проверен Синий бархат / Blue Velvet (1986) BDRip 1080p | P2,A

в форуме 720p | 1080p, Размер: 13.62 ГБ, Здоровье: 58%

Гость

0
56|95

235
121

07 июн 2015, 14:13

Гость Перейти к последнему сообщению

В этой теме нет новых непрочитанных сообщений. Скачать торрент Жизнь Адель / La vie d'Adèle - Chapitres 1 et 2 / Blue Is the Warmest Color (2013) BDRip 720p | L1

в форуме 720p | 1080p, Размер: 9.71 ГБ, Здоровье: 0%

Anonymous

0
0|0

14
0

20 фев 2014, 22:42

Anonymous Перейти к последнему сообщению

В этой теме нет новых непрочитанных сообщений. Скачать торрент Глубокое синее море / Deep Blue Sea (1999) BDRip 720p | D, A

в форуме 720p | 1080p, Размер: 4.37 ГБ, Здоровье: 100%

Anonymous

0
35|7

45
34

09 янв 2014, 06:43

Anonymous Перейти к последнему сообщению



Сейчас этот форум просматривают: нет зарегистрированных пользователей и гости: 1


Вы не можете начинать темы
Вы не можете отвечать на сообщения
Вы не можете редактировать свои сообщения
Вы не можете удалять свои сообщения
Вы не можете добавлять вложения

Перейти:  

!ВНИМАНИЕ!
 Ресурс не предоставляет электронные версии произведений, а занимается лишь коллекционированием и каталогизацией ссылок, присылаемых и публикуемых на форуме нашими читателями. Если вы являетесь правообладателем какого-либо представленного материала и не желаете чтобы ссылка на него находилась в нашем каталоге, свяжитесь с нами и мы незамедлительно удалим её. Файлы для обмена на трекере предоставлены пользователями сайта, и администрация не несёт ответственности за их содержание. Просьба не заливать файлы, защищенные авторскими правами, а также файлы нелегального содержания!